Присоединяйтесь к нам в Telegram!, здесь всегда актуальный адрес сайта, оперативная поддержка и многое другое!!

>

5.9

iTunes

7.4

iTunes

9.4

1 сезон

1

7.4

2 сезон

7.2

iTunes

7.3

iTunes

13

6.1

iTunes

8.3

Пиратка

30

ULTIMATE

pack

9.9

Лицензия

ВАЖНО

ИГРА 18+

pack

7.3

RePack

MK11

7.7

RePack

jed

7.8

RePack

fifa19

8.5

RePack

RDR2

RePack

NEED FOR SPEED™ PAYBACK

5 сезон

9 сезон

Бесстыжие 9 сезон

Все сериалы

все сериалы на PB.wtf

RePack

FAR CRY 5

Anonymous, доброе утро, мы катастрофически не успеваем собрать деньги на оплату серверов, помогите нам пожалуйста 5,10,15р., для нас важна любая помощь . В качестве благодарности мы отключим Вам всю рекламу на сайте (укажите свой ник в строку Ваше имя)!

×
  
Magnet ссылка

Темная правда / The Truth (Дэмиан Ли) [2012 г., боевик, триллер, WEB-DL 720p, MVO, лицензия] kino.freetor.icu

Темная правда через торрент kino.freetor.icu

Размер: 3.76 GB | Добавлен: 8 лет 9 мес. назад | Торрент скачан:126 раз
Смотреть онлайн Темная правда | Скачать    Ребята, помогите собрать деньги на оплату серверов!!!

28-02-2013 14:44 Темная правда Скачать торрент  

Темная правда / The Truth

Год выпуска: 2012
Страна: Канада
Жанр: боевик, триллер
Продолжительность: 01:46:21
Перевод: Профессиональный многоголосый, Лицензия
Субтитры: Ukrainian, English

Режиссер: Дэмиан Ли
Продюссер: Гари Хаусэм, Билл Маркс, Девон Бостик
Сценарий: Дэмиан Ли

Мировой рейтинг IMDB 5.30 (1 419)


В ролях: Энди Гарсиа, Ким Коутс, Дебора Кара Ангер, Ева Лонгория, Форест Уитакер, Кевин Дюран, Стивен Бауэр, Девон Бостик, Эл Сапьенза, Хулио Оскар Мечосо

Описание: Бывший сотрудник ЦРУ, продолжил свою карьеру в политической сфере. Ему предстоит выяснить, что на самом деле происходит в джунглях одной из «банановых республик» Южной Америки. По некоторым данным, там происходят массовые убийства и угнетается местное население. Главная героиня, поможет политику узнать правду...

Доп. информация: Сохранены оригинальные чаптеры

Качество: WEB-DL 720p
Формат: MKV
Видео кодек: H.264
Аудио кодек: AC3
Видео: 1280 x 718 (1.783) at 23.976 fps AVC at 4213 Кбит/сек
Аудио#1: AC-3 at 448 Кбит/сек 6 каналов, 48,0 КГц RUS
Аудио#2: AC-3 at 448 Кбит/сек 6 каналов, 48,0 КГц ENG
Релиз от: Sудья
Общее
Уникальный идентификатор : 203222220938564105330029261723237548688 (0x98E32D12BADC2EF1BA7DA37BB59F0290)
Полное имя : D:ФильмыTemnaja.Pravda.2012.P.WEB-DL.720p.ac3.=Sудья=.mkv
Формат : Matroska
Версия формата : Version 4 / Version 2
Размер файла : 3,76 Гбайт
Продолжительность : 1 ч. 46 м.
Общий поток : 5081 Кбит/сек
Название фильма : =Sудья=
Дата кодирования : UTC 2013-02-28 14:08:30
Программа кодирования : mkvmerge v6.0.0 ('Coming Up For Air') built on Jan 20 2013 09:52:00
Библиотека кодирования : libebml v1.3.0 + libmatroska v1.4.0

Видео
Идентификатор : 1
Формат : AVC
Формат/Информация : Advanced Video Codec
Профиль формата : High@L4.1
Параметр CABAC формата : Нет
Параметр ReFrames формата : 4 кадра
Идентификатор кодека : V_MPEG4/ISO/AVC
Продолжительность : 1 ч. 46 м.
Битрейт : 4213 Кбит/сек
Ширина : 1280 пикселей
Высота : 718 пикселей
Соотношение сторон : 16:9
Режим частоты кадров : Постоянный
Частота кадров : 23,976 кадра/сек
Цветовое пространство : YUV
Субдискретизация насыщенности : 4:2:0
Битовая глубина : 8 бит
Тип развёртки : Прогрессивная
Бит/(Пиксели*Кадры) : 0.191
Размер потока : 3,02 Гбайт (80%)
Заголовок : The Truth.2012.1080p.WEB-DL.DD5.1.H.264-BS
Библиотека кодирования : x264 core 115 r2008bm 4c552d8
Настройки программы : cabac=0 / ref=1 / deblock=0:0:0 / analyse=0x3:0x3 / me=dia / subme=1 / psy=1 / psy_rd=1.00:0.00 / mixed_ref=0 / me_range=16 / chroma_me=1 / trellis=0 / 8x8dct=1 / cqm=0 / deadzone=21,11 / fast_pskip=1 / chroma_qp_offset=0 / threads=1 / sliced_threads=0 / nr=0 / decimate=1 / interlaced=0 / bluray_compat=0 / constrained_intra=0 / bframes=3 / b_pyramid=2 / b_adapt=1 / b_bias=0 / direct=1 / weightb=0 / open_gop=0 / weightp=0 / keyint=250 / keyint_min=23 / scenecut=40 / intra_refresh=0 / rc=abr / mbtree=0 / bitrate=4213 / ratetol=1.0 / qcomp=0.60 / qpmin=0 / qpmax=69 / qpstep=4 / ip_ratio=1.40 / pb_ratio=1.30 / aq=1:1.00
Язык : English
Default : Да
Forced : Да

Аудио #1
Идентификатор : 2
Формат : AC-3
Формат/Информация : Audio Coding 3
Расширение режима : CM (complete main)
Параметр Endianness формата : Big
Идентификатор кодека : A_AC3
Продолжительность : 1 ч. 46 м.
Вид битрейта : Постоянный
Битрейт : 448 Кбит/сек
Каналы : 6 каналов
Расположение каналов : Front: L C R, Side: L R, LFE
Частота : 48,0 КГц
Битовая глубина : 16 бит
Метод сжатия : С потерями
Размер потока : 340 Мбайт (9%)
Заголовок : DD 5.1 @ 448 kbps - MVO, R5
Язык : Russian
Default : Да
Forced : Да

Аудио #2
Идентификатор : 3
Формат : AC-3
Формат/Информация : Audio Coding 3
Расширение режима : CM (complete main)
Параметр Endianness формата : Big
Идентификатор кодека : A_AC3
Продолжительность : 1 ч. 46 м.
Вид битрейта : Постоянный
Битрейт : 448 Кбит/сек
Каналы : 6 каналов
Расположение каналов : Front: L C R, Side: L R, LFE
Частота : 48,0 КГц
Битовая глубина : 16 бит
Метод сжатия : С потерями
Размер потока : 340 Мбайт (9%)
Заголовок : DD 5.1 @ 448 kbps
Язык : English
Default : Нет
Forced : Нет

Текст #1
Идентификатор : 4
Формат : UTF-8
Идентификатор кодека : S_TEXT/UTF8
Идентификатор кодека/Информация : UTF-8 Plain Text
Язык : Ukrainian
Default : Нет
Forced : Нет

Текст #2
Идентификатор : 5
Формат : UTF-8
Идентификатор кодека : S_TEXT/UTF8
Идентификатор кодека/Информация : UTF-8 Plain Text
Язык : English
Default : Нет
Forced : Нет

Меню
00:00:00.000 : en:1
00:08:40.000 : en:2
00:15:23.000 : en:3
00:24:29.000 : en:4
00:34:27.000 : en:5
00:42:31.000 : en:6
00:48:04.000 : en:7
00:53:56.000 : en:8
01:03:20.000 : en:9
01:13:47.000 : en:10
01:23:35.000 : en:11
01:32:01.000 : en:12
01:38:10.000 : en:13


Темная правда скачать торрент


kino.freetor.icu



Скачать Темная правда через торрент https://pic1.kartinco.top/images/21/nqrumn36ef.png Скачать, смотреть онлайн Темная правда бесплантно в хорошем качестве Описание: Бывший сотрудник ЦРУ, продолжил свою карьеру в политической сфере. Ему предстоит выяснить, что на самом деле происходит в ... 10 10 1
Info! Золотая раздача, скачанное не засчитывается.
Торрент: Зарегистрирован [2013-02-28 14:44] · скачан: 126 раз
Статус: √ проверено
Размер: 3.76 GB
Как cкачать? Как скачать Темная правда через торрент | UTorrent

% Раздел Тема Автор DL S | L
Фильмы 2012 [ 1.46 GB ] Темная правда / The Truth [2012 DVDRip MVO лицензия] nn99nn Скачать
1 | 0
Фильмы 2012 [ 746 MB ] Темная правда / The Truth [2012 WEB-DLRip] MVO dexter lex Скачать
1 | 0
Фильмы 2012 [ 2.05 GB ] Темная правда / The Truth [2012 WEB-DLRip MVO лицензия] Серёжк@ Скачать
1 | 0


Последний раз редактировалось: Sудья (2013-02-28 18:30), всего редактировалось 1 раз

28-11-2019 20:33  

Отключить всю рекламу на сайте

    Дорогой пользователь! Огромная просьба, поблагодарите релизера, оцените раздачу и оставьте свои комментарий, если Вы скачали Темная правда через торрент бесплатно!
    Комментировать посты могут только пользователи прошедшие не сложную регистрацию
    Показать сообщения:    

    Темная правда через торрент
    Скачать бесплатно Темная правда
    Темная правда скачать торрент
    Темная правда смотреть онлайн
    Cкачать фильм Темная правда бесплатно
    Темная правда скачать торрент в хорошем качестве
    Темная правда смотреть онлайн бесплатно в хорошем качестве


    Вы не можете начинать темы
    Вы не можете отвечать на сообщения
    Вы не можете редактировать свои сообщения
    Вы не можете удалять свои сообщения
    Вы не можете голосовать в опросах
    Вы не можете прикреплять файлы к сообщениям
    Вы можете скачивать файлы