Anonymous, доброй ночи, присоединяйтесь к нам в Telegram!, здесь всегда актуальный адрес сайта, оперативная поддержка и многое другое!

>

5.6

iTunes

7.4

iTunes

5.7

MVO

1

7.7

1 сезон

6.8

iTunes

7.3

1 сезон

13

6.7

1 сезон

8.3

RePack

30

ULTIMATE

pack

9.9

Лицензия

ВАЖНО

ИГРА 18+

pack

7.3

RePack

MK11

7.7

RePack

jed

7.8

RePack

fifa19

8.5

RePack

RDR2

RePack

NEED FOR SPEED™ PAYBACK

4 сезон

9 сезон

Бесстыжие 9 сезон

Все сериалы

все сериалы на PB.wtf

RePack

FAR CRY 5

Anonymous, доброй ночи, мы катастрофически не успеваем собрать деньги на оплату серверов, помогите нам пожалуйста 5,10,15р., для нас важна любая помощь . В качестве благодарности мы отключим Вам всю рекламу на сайте (укажите свой ник в строку Ваше имя)!

×
  
Magnet ссылка

Loc-Dog & Tony VA - Все знают всё 2013 / FLAC (tracks+.cue) / Lossless / Rap kino.freetor.icu

Loc-Dog & Tony VA - Все знают всё 2013 через торрент kino.freetor.icu

Размер: 307 MB | Добавлен: 8 лет 4 мес. назад | Торрент скачан:202 раза
Смотреть онлайн Loc-Dog & Tony VA - Все знают всё 2013 | Скачать    Ребята, помогите собрать деньги на оплату серверов!!!

22-05-2013 01:13 Loc-Dog & Tony VA - Все знают всё 2013 Скачать торрент  

Loc-Dog & Tony VA - Все знают всё (2013)
СТРАНА: Россия
ГОД: 2013
ЖАНР: Rap
ЛЕЙБЛ: Студия СОЮЗ -6215-13
ПРОДОЛЖИТЕЛЬНОСТЬ: 00:40:39
ФОРМАТ: FLAC (tracks+.cue)
КАЧЕСТВО: Lossless
Наличие сканов в содержимом раздачи: да

01. Поднимай на борТ
02. Хавать МС
03. Скинь ее
04. Не каждый унесет
05. Теряют разум
06. Сам впорядке (feat Romi)
07. Все будет ОХ!
08. Со всех калибров
09. В дневной суете
10. Повремени убегать
11. Все знают все (bonus new edition)

Exact Audio Copy V1.0 beta 3 from 29. August 2011

Отчёт EAC об извлечении, выполненном 16. апреля 2013, 23:21

Loc-Dog & Tony VA / Все знают всё

Дисковод: Optiarc DVD RW AD-7280S Adapter: 0 ID: 0

Режим чтения : Достоверность
Использование точного потока : Да
Отключение кэша аудио : Да
Использование указателей C2 : Нет

Коррекция смещения при чтении : 48
Способность читать области Lead-in и Lead-out : Нет
Заполнение пропущенных сэмплов тишиной : Да
Удаление блоков с тишиной в начале и конце : Нет
При вычислениях CRC использовались нулевые сэмплы : Да
Интерфейс : Встроенный Win32-интерфейс для Win NT/2000
Обработка зазоров : Добавлено к предыдущему треку

Выходной формат : Пользовательский кодировщик
Выбранный битрейт : 128 kBit/s
Качество : Высокий
Добавление ID3-тега : Нет
Утилита сжатия : Crogram Files (x86)FLACflac.exe
Дополнительные параметры : -V -8 -T "Genre=%genre%" -T "Artist=%artist%" -T "Title=%title%" -T "Album=%albumtitle%" -T "Date=%year%" -T "Tracknumber=%tracknr%" -T "Comment=%comment%" %source%

TOC извлечённого CD

Трек | Старт | Длительность | Начальный сектор | Конечный сектор
---------------------------------------------------------------------
1 | 0:00.00 | 4:01.15 | 0 | 18089
2 | 4:01.15 | 3:43.29 | 18090 | 34843
3 | 7:44.44 | 2:43.66 | 34844 | 47134
4 | 10:28.35 | 3:21.49 | 47135 | 62258
5 | 13:50.09 | 3:10.53 | 62259 | 76561
6 | 17:00.62 | 4:34.00 | 76562 | 97111
7 | 21:34.62 | 4:04.15 | 97112 | 115426
8 | 25:39.02 | 3:30.64 | 115427 | 131240
9 | 29:09.66 | 3:58.22 | 131241 | 149112
10 | 33:08.13 | 3:51.66 | 149113 | 166503
11 | 37:00.04 | 3:39.37 | 166504 | 182965

Трек 1

Имя файла D:не удалять!!Loc-Dog & Tony VA - Все знают всё1 Поднимай на борт.wav

Длина предзазора 0:00:02.00

Пиковый уровень 100.0 %
Скорость извлечения 2.3 X
Качество трека 100.0 %
CRC теста 9BF12C20
CRC копии 9BF12C20
Трек не обнаружен в базе AccurateRip
Копирование... OK

Трек 2

Имя файла D:не удалять!!Loc-Dog & Tony VA - Все знают всё2 Хавать МС.wav

Длина предзазора 0:00:01.00

Пиковый уровень 100.0 %
Скорость извлечения 2.6 X
Качество трека 100.0 %
CRC теста 947C0E40
CRC копии 947C0E40
Трек не обнаружен в базе AccurateRip
Копирование... OK

Трек 3

Имя файла D:не удалять!!Loc-Dog & Tony VA - Все знают всё3 Скинь её.wav

Длина предзазора 0:00:01.00

Пиковый уровень 100.0 %
Скорость извлечения 2.6 X
Качество трека 100.0 %
CRC теста 41BEEB40
CRC копии 41BEEB40
Трек не обнаружен в базе AccurateRip
Копирование... OK

Трек 4

Имя файла D:не удалять!!Loc-Dog & Tony VA - Все знают всё4 Не каждый унесёт.wav

Длина предзазора 0:00:01.00

Пиковый уровень 100.0 %
Скорость извлечения 2.9 X
Качество трека 100.0 %
CRC теста 3FC3A3D3
CRC копии 3FC3A3D3
Трек не обнаружен в базе AccurateRip
Копирование... OK

Трек 5

Имя файла D:не удалять!!Loc-Dog & Tony VA - Все знают всё5 Теряют разум.wav

Длина предзазора 0:00:01.00

Пиковый уровень 100.0 %
Скорость извлечения 3.0 X
Качество трека 100.0 %
CRC теста 03D286EF
CRC копии 03D286EF
Трек не обнаружен в базе AccurateRip
Копирование... OK

Трек 6

Имя файла D:не удалять!!Loc-Dog & Tony VA - Все знают всё6 Сам в порядке (feat Romi).wav

Длина предзазора 0:00:01.00

Пиковый уровень 100.0 %
Скорость извлечения 3.4 X
Качество трека 100.0 %
CRC теста 7C79BAFF
CRC копии 7C79BAFF
Трек не обнаружен в базе AccurateRip
Копирование... OK

Трек 7

Имя файла D:не удалять!!Loc-Dog & Tony VA - Все знают всё7 Всё будет ОХ!.wav

Длина предзазора 0:00:01.00

Пиковый уровень 100.0 %
Скорость извлечения 3.6 X
Качество трека 100.0 %
CRC теста E86C6844
CRC копии E86C6844
Трек не обнаружен в базе AccurateRip
Копирование... OK

Трек 8

Имя файла D:не удалять!!Loc-Dog & Tony VA - Все знают всё8 Со всех калибров.wav

Длина предзазора 0:00:01.00

Пиковый уровень 100.0 %
Скорость извлечения 3.6 X
Качество трека 100.0 %
CRC теста A54CA6D1
CRC копии A54CA6D1
Трек не обнаружен в базе AccurateRip
Копирование... OK

Трек 9

Имя файла D:не удалять!!Loc-Dog & Tony VA - Все знают всё9 В дневной суете.wav

Длина предзазора 0:00:01.00

Пиковый уровень 100.0 %
Скорость извлечения 3.9 X
Качество трека 100.0 %
CRC теста 1482101F
CRC копии 1482101F
Трек не обнаружен в базе AccurateRip
Копирование... OK

Трек 10

Имя файла D:не удалять!!Loc-Dog & Tony VA - Все знают всё10 Повремени убегать.wav

Длина предзазора 0:00:01.00

Пиковый уровень 100.0 %
Скорость извлечения 4.0 X
Качество трека 100.0 %
CRC теста 0BDC3663
CRC копии 0BDC3663
Трек не обнаружен в базе AccurateRip
Копирование... OK

Трек 11

Имя файла D:не удалять!!Loc-Dog & Tony VA - Все знают всё11 Все знают всё (bonus new edition).wav

Длина предзазора 0:00:01.00

Пиковый уровень 100.0 %
Скорость извлечения 3.6 X
Качество трека 99.9 %
CRC теста 87BDF74A
CRC копии 87BDF74A
Трек не обнаружен в базе AccurateRip
Копирование... OK

Ни одного трека нет в базе AccurateRip

Ошибок не произошло

Конец отчёта

---- CUETools DB Plugin V2.1.3

[CTDB TOCID: 0zWaP7w5VL0Kd8eD57Wj0GxYyNI-] disk not present in database, Submit result: 0zWaP7w5VL0Kd8eD57Wj0GxYyNI- has been uploaded

==== Контрольная сумма отчёта DBB4DBCF462BB9C57999F91EEDC5A780055C9DF36BA989F8F31436AA5881C7B6 ====

REM GENRE Rap
REM DATE 2013
REM DISCID 7C09870B
REM COMMENT "ExactAudioCopy v1.0b3"
PERFORMER "Loc-Dog & Tony VA"
TITLE "Все знают всё"
FILE "01 Поднимай на борт.wav" WAVE
TRACK 01 AUDIO
TITLE "Поднимай на борт"
PERFORMER "Loc-Dog & Tony VA"
INDEX 01 00:00:00
TRACK 02 AUDIO
TITLE "Хавать МС"
PERFORMER "Loc-Dog & Tony VA"
INDEX 00 04:00:15
FILE "02 Хавать МС.wav" WAVE
INDEX 01 00:00:00
TRACK 03 AUDIO
TITLE "Скинь её"
PERFORMER "Loc-Dog & Tony VA"
INDEX 00 03:42:29
FILE "03 Скинь её.wav" WAVE
INDEX 01 00:00:00
TRACK 04 AUDIO
TITLE "Не каждый унесёт"
PERFORMER "Loc-Dog & Tony VA"
INDEX 00 02:42:66
FILE "04 Не каждый унесёт.wav" WAVE
INDEX 01 00:00:00
TRACK 05 AUDIO
TITLE "Теряют разум"
PERFORMER "Loc-Dog & Tony VA"
INDEX 00 03:20:49
FILE "05 Теряют разум.wav" WAVE
INDEX 01 00:00:00
TRACK 06 AUDIO
TITLE "Сам в порядке (feat Romi)"
PERFORMER "Loc-Dog & Tony VA"
INDEX 00 03:09:53
FILE "06 Сам в порядке (feat Romi).wav" WAVE
INDEX 01 00:00:00
TRACK 07 AUDIO
TITLE "Всё будет ОХ!"
PERFORMER "Loc-Dog & Tony VA"
INDEX 00 04:33:00
FILE "07 Всё будет ОХ!.wav" WAVE
INDEX 01 00:00:00
TRACK 08 AUDIO
TITLE "Со всех калибров"
PERFORMER "Loc-Dog & Tony VA"
INDEX 00 04:03:15
FILE "08 Со всех калибров.wav" WAVE
INDEX 01 00:00:00
TRACK 09 AUDIO
TITLE "В дневной суете"
PERFORMER "Loc-Dog & Tony VA"
INDEX 00 03:29:64
FILE "09 В дневной суете.wav" WAVE
INDEX 01 00:00:00
TRACK 10 AUDIO
TITLE "Повремени убегать"
PERFORMER "Loc-Dog & Tony VA"
INDEX 00 03:57:22
FILE "10 Повремени убегать.wav" WAVE
INDEX 01 00:00:00
TRACK 11 AUDIO
TITLE "Все знают всё (bonus new edition)"
PERFORMER "Loc-Dog & Tony VA"
INDEX 00 03:50:66
FILE "11 Все знают всё (bonus new edition).wav" WAVE
INDEX 01 00:00:00
kino.freetor.icu



Скачать Loc-Dog & Tony VA - Все знают всё 2013 через торрент http://i46.fastpic.ru/big/2013/0522/da/30567f44af079296099d19da57d98dda.jpg Скачать, смотреть онлайн Loc-Dog & Tony VA - Все знают всё 2013 бесплантно в хорошем качестве Треклист Поднимай на борТ Хавать МС Скинь ее Не каждый унесет Теряют разум Сам впорядке (feat Romi) Все будет ... 10 10 6
Info! Золотая раздача, скачанное не засчитывается.
Торрент: Зарегистрирован [2013-05-22 01:13] · скачан: 202 раз
Статус: √ проверено
Размер: 307 MB
Как cкачать? Как скачать Loc-Dog & Tony VA - Все знают всё 2013 через торрент | UTorrent

28-11-2019 20:33  

Отключить всю рекламу на сайте

    Дорогой пользователь! Огромная просьба, поблагодарите релизера, оцените раздачу и оставьте свои комментарий, если Вы скачали Loc-Dog & Tony VA - Все знают всё 2013 через торрент бесплатно!
    Комментировать посты могут только пользователи прошедшие не сложную регистрацию
    Показать сообщения:    

    Loc-Dog & Tony VA - Все знают всё 2013 через торрент
    Скачать бесплатно Loc-Dog & Tony VA - Все знают всё 2013
    Loc-Dog & Tony VA - Все знают всё 2013 скачать торрент
    Loc-Dog & Tony VA - Все знают всё 2013 смотреть онлайн
    Cкачать фильм Loc-Dog & Tony VA - Все знают всё 2013 бесплатно
    Loc-Dog & Tony VA - Все знают всё 2013 скачать торрент в хорошем качестве
    Loc-Dog & Tony VA - Все знают всё 2013 смотреть онлайн бесплатно в хорошем качестве


    Вы не можете начинать темы
    Вы не можете отвечать на сообщения
    Вы не можете редактировать свои сообщения
    Вы не можете удалять свои сообщения
    Вы не можете голосовать в опросах
    Вы не можете прикреплять файлы к сообщениям
    Вы можете скачивать файлы