Присоединяйтесь к нам в Telegram!, здесь всегда актуальный адрес сайта, оперативная поддержка и многое другое!!

>

5.9

iTunes

7.4

iTunes

9.4

1 сезон

1

7.4

2 сезон

7.2

iTunes

7.3

1 сезон

13

6.1

iTunes

8.3

GOG

30

ULTIMATE

pack

9.9

Лицензия

ВАЖНО

ИГРА 18+

pack

7.3

RePack

MK11

7.7

RePack

jed

7.8

RePack

fifa19

8.5

RePack

RDR2

RePack

NEED FOR SPEED™ PAYBACK

5 сезон

9 сезон

Бесстыжие 9 сезон

Все сериалы

все сериалы на PB.wtf

RePack

FAR CRY 5

Anonymous, добрый вечер, мы катастрофически не успеваем собрать деньги на оплату серверов, помогите нам пожалуйста 5,10,15р., для нас важна любая помощь . В качестве благодарности мы отключим Вам всю рекламу на сайте (укажите свой ник в строку Ваше имя)!

×
  
Magnet ссылка

Перекрестие / Crosshairs (Ник Ленц) [2013 г., боевик, триллер, драма, HDTVRip 720p, Профессиональный двухголосый] kino.freetor.icu

Перекрестие через торрент kino.freetor.icu

Размер: 3.66 GB | Добавлен: 8 лет 3 мес. назад | Торрент скачан:155 раз
Смотреть онлайн Перекрестие | Скачать    Ребята, помогите собрать деньги на оплату серверов!!!

02-08-2013 06:21 Перекрестие Скачать торрент  

Перекрестие / CrosshairsГод выпуска: 2013
Страна: США
Жанр: боевик, триллер, драма,
Продолжительность: 01:52:30
Перевод: Профессиональный (двухголосый)

Режиссер: Ник Ленц
Продюссер: Ник Ленц, Даррен Уоррен, Грег Кук
Сценарий: Ник Ленц

Бюджет: $1 250 000
Премьера в мире: 14 мая 2013





В ролях: Роберт Сиэй, Марк Ролстон, Том Сайзмор, Джефф Парис, Коди Китчен, Люк Эдвардс, Мишель Ван Дер Уотер, Сильви Кас, Зитто Казанн, Бад Уотсон, Кэролин Стотс, Кристина Кулиш, Ребекка Беренс, Дрю Брилакис, Леви Филер, Грант Мэтис, Остин Мелроз,

Описание: Джек Верлен — талантливый убийца, и он не видит ничего зазорного в своей профессии. Во время выполнения заказа на ликвидацию продюсера порнофильмов, изуродовавшего одну иммигрантку, он получает выгодное предложение от высокопоставленного банкира, от которого совсем не просто отказаться. А на следующий день на пороге его дома неожиданно появляется его бывшая, которая обращается к бывшему бойфренду с необычной просьбой…

Доп. информация: Просмотр не рекомендуется лицам моложе 18 лет

Качество: HDTVRip 720p
Формат: MKV
Видео кодек: MPEG4
Аудио кодек: AC3
Видео: 1280x528 (2.40:1), 25.000 fps, MPEG-4 AVC ~ 4300 kbps avg, 0.254 bit/pixel
Аудио#1: 48 kHz, AC3 Dolby Digital, 3/2 (L,C,R,l,r) + LFE ch, ~448 kbpsскриншот   скриншот   скриншот   скриншот   скриншот   скриншот  




Общее
Уникальный идентификатор : 243388187658684999517634967092269973159 (0xB71ADC2095A24EFBB55ADC18D6247EA7)
Полное имя : C:VideoCrosshairs.2013.P.HDTV.720p.mkv
Формат : Matroska
Версия формата : Version 2
Размер файла : 3,66 Гбайт
Продолжительность : 1 ч. 52 м.
Общий поток : 4654 Кбит/сек
Дата кодирования : UTC 2013-08-01 15:49:41
Программа кодирования : mkvmerge v6.1.0 ('Old Devil') built on Mar 4 2013 09:10:42
Библиотека кодирования : libebml v1.3.0 + libmatroska v1.4.0

Видео
Идентификатор : 1
Формат : AVC
Формат/Информация : Advanced Video Codec
Профиль формата : High 10@L3.1
Параметр CABAC формата : Да
Параметр ReFrames формата : 4 кадра
Идентификатор кодека : V_MPEG4/ISO/AVC
Продолжительность : 1 ч. 52 м.
Битрейт : 4300 Кбит/сек
Ширина : 1280 пикселей
Высота : 528 пикселей
Соотношение сторон : 2,40:1
Режим частоты кадров : Постоянный
Частота кадров : 25,000 кадров/сек
Цветовое пространство : YUV
Субдискретизация насыщенности : 4:2:0
Битовая глубина : 10 бит
Тип развёртки : Прогрессивная
Бит/(Пиксели*Кадры) : 0.254
Размер потока : 3,23 Гбайт (88%)
Библиотека кодирования : x264 core 130 r2273 b3065e6
Настройки программы : cabac=1 / ref=3 / deblock=1:0:0 / analyse=0x3:0x113 / me=hex / subme=7 / psy=1 / psy_rd=1.00:0.00 / mixed_ref=1 / me_range=16 / chroma_me=1 / trellis=1 / 8x8dct=1 / cqm=0 / deadzone=21,11 / fast_pskip=1 / chroma_qp_offset=-2 / threads=6 / lookahead_threads=1 / sliced_threads=0 / nr=0 / decimate=1 / interlaced=0 / bluray_compat=0 / constrained_intra=0 / bframes=3 / b_pyramid=2 / b_adapt=1 / b_bias=0 / direct=1 / weightb=1 / open_gop=0 / weightp=2 / keyint=250 / keyint_min=25 / scenecut=40 / intra_refresh=0 / rc_lookahead=40 / rc=abr / mbtree=1 / bitrate=4300 / ratetol=1.0 / qcomp=0.60 / qpmin=0 / qpmax=81 / qpstep=4 / ip_ratio=1.40 / aq=1:1.00
Default : Да
Forced : Нет

Аудио
Идентификатор : 2
Формат : AC-3
Формат/Информация : Audio Coding 3
Расширение режима : CM (complete main)
Параметр Endianness формата : Big
Идентификатор кодека : A_AC3
Продолжительность : 1 ч. 52 м.
Вид битрейта : Постоянный
Битрейт : 448 Кбит/сек
Каналы : 6 каналов
Расположение каналов : Front: L C R, Side: L R, LFE
Частота : 48,0 КГц
Битовая глубина : 16 бит
Метод сжатия : С потерями
Размер потока : 361 Мбайт (10%)
Default : Да
Forced : Нет


Перекрестие скачать торрент


kino.freetor.icu



Скачать Перекрестие через торрент http://i49.fastpic.ru/big/2013/0802/4c/9fc638c692e3f424085c12f2628c124c.jpg Скачать, смотреть онлайн Перекрестие бесплантно в хорошем качестве Описание: Джек Верлен — талантливый убийца, и он не видит ничего зазорного в своей профессии. Во время выполнения заказа на ликвидацию ... 8.7 10 7
Info! Золотая раздача, скачанное не засчитывается.
Торрент: Зарегистрирован [2013-08-02 06:21] · скачан: 155 раз
Статус: √ проверено
Размер: 3.66 GB
Как cкачать? Как скачать Перекрестие через торрент | UTorrent

% Раздел Тема Автор DL S | L
Фильмы 2013 [DVDrip, WEB-DLRip, HDrip] [ 1.46 GB ] Перекрестие / Crosshairs [2013 HDRip [НТВ Ворон Скачать
1 | 0
Фильмы 2013 (Звук TS, Cam, VO, DVO) [ 1.46 GB ] Перекрестие / Crosshairs [ 2013 HDTVRip ] DVO Ворон Скачать
1 | 0


Последний раз редактировалось: Alexxx5252 (2013-08-12 18:27), всего редактировалось 2 раз(а)

28-11-2019 20:33  

Отключить всю рекламу на сайте

02-08-2013 08:39 Перекрестие Скачать торрент  

Alexxx5252

Alexxx5252 писал(а):

Перевод: Профессиональный многоголосый

Перевод:Профессиональный (двухголосый)

Alexxx5252 писал(а):

Перекрестие / Crosshairs (Ник Ленц) [2013 г., боевик, триллер, драма, BDRip 720p, Профессиональный многоголосый, Лицензия]

Правим.kino.freetor.icu



02-08-2013 12:59 Перекрестие Скачать торрент  

Vetаl писал(а):

Alexxx5252

Alexxx5252 писал(а):

Перевод: Профессиональный многоголосый

Перевод:Профессиональный (двухголосый)

Alexxx5252 писал(а):

Перекрестие / Crosshairs (Ник Ленц) [2013 г., боевик, триллер, драма, BDRip 720p, Профессиональный многоголосый, Лицензия]

Правим.

Исправилkino.freetor.icu



    Дорогой пользователь! Огромная просьба, поблагодарите релизера, оцените раздачу и оставьте свои комментарий, если Вы скачали Перекрестие через торрент бесплатно!
    Комментировать посты могут только пользователи прошедшие не сложную регистрацию
    Показать сообщения:    

    Перекрестие через торрент
    Скачать бесплатно Перекрестие
    Перекрестие скачать торрент
    Перекрестие смотреть онлайн
    Cкачать фильм Перекрестие бесплатно
    Перекрестие скачать торрент в хорошем качестве
    Перекрестие смотреть онлайн бесплатно в хорошем качестве


    Вы не можете начинать темы
    Вы не можете отвечать на сообщения
    Вы не можете редактировать свои сообщения
    Вы не можете удалять свои сообщения
    Вы не можете голосовать в опросах
    Вы не можете прикреплять файлы к сообщениям
    Вы можете скачивать файлы