>

5.6

iTunes

7.4

MVO

5.7

MVO

1

7.4

1 сезон

6.8

iTunes

7.2

1 сезон

13

6.7

1 сезон

8.3

RePack

30

Deluxe

pack

9.9

Лицензия

ВАЖНО

ИГРА 18+

pack

7.3

RePack

MK11

7.7

RePack

jed

7.8

RePack

fifa19

8.5

RePack

RDR2

RePack

NEED FOR SPEED™ PAYBACK

4 сезон

9 сезон

Бесстыжие 9 сезон

Все сериалы

все сериалы на PB.wtf

RePack

FAR CRY 5

Anonymous, доброй ночи, мы катастрофически не успеваем собрать деньги на оплату серверов, помогите нам пожалуйста 5,10,15р., для нас важна любая помощь . В качестве благодарности мы отключим Вам всю рекламу на сайте (укажите свой ник в строку Ваше имя)!

×
  
Magnet ссылка

Подпольная империя / Boardwalk Empire / Сезон: 1 / Серии: 1-12 (Полный сезон) (Мартин Скорсезе, Тимоти Ван Паттен, Аллен Култер, Джереми Подесва) [2010 г., драма, криминал, BDRip 720p] 3xMVO + AVO + DVO + Original от HDCLUB kino.freetor.icu

Подпольная империя через торрент kino.freetor.icu

Размер: 58.14 GB | Добавлен: 7 лет 11 мес. назад | Торрент скачан:195 раз
Смотреть онлайн Подпольная империя | Скачать    Ребята, помогите собрать деньги на оплату серверов!!!

22-08-2013 17:50 Подпольная империя Скачать торрент  

Подпольная империя / Boardwalk Empire You can't be half a gangster Год выпуска: 2010
Страна: США
Жанр: драма, криминал,
Продолжительность: 00:52:00
Перевод:
|Одноголосый закадровый, Ю. Сербин|
|Многоголосый закадровый, LostFilm|
|Двухголосый закадровый, Кубик в Кубе|
|Многоголосый закадровый, Первый канал|
|Многоголосый закадровый, FOX|
Субтитры: Russian (SOLDLUCK), Ukrainian (Serpanok), English
Режиссер: Мартин Скорсезе (Лауреат премии Оскар), Тимоти Ван Паттен, Аллен Култер, Джереми Подесва
Продюссер: Мартин Скорсезе
Сценарий: Теренс Уинтер (Обладатель «Эмми», сценарист «Клан Сопрано»)
В ролях:
Стив Бушеми (лауриат премии Золотой глобус и Эмми за сериал "Подпольная империя"),
Майкл Питт, Келли Макдоналд, Майкл Шеннон, Ши Уигхэм, Алекса Палладино, Майкл Стулбарг, Стивен Грэм, Винсент Пьяцца, Джек Хьюстон,
IMDB 8.70 (70 999)
Описание: 1920 год. Через несколько часов Атлантик-Сити - столица развлечений и порока, как и вся Америка, вступит в эпоху «Сухого закона». Енох «Наки» Томпсон, днем - городской казначей, а ночью - хитроумный гангстер со связями на самом «верху», решает воспользоваться ситуацией и получить баснословные прибыли на подпольной торговле алкоголем. Однако не он один жаждет обогатиться на новом промысле...

Качество: BDRip 720p
Формат: MKV
Видео кодек: H.264
Аудио кодек: DTS / AC3
Видео: 1280x720 at 23.976 fps, x264@L4.1, 2pass, ~7000 kbps avg
Аудио#1: Russian: 48 kHz, DTS, 3/2 (L,C,R,l,r) + LFE ch, ~1536 kbps avg |Одноголосый закадровый, Ю. Сербин|
Аудио#2: Russian: 48 kHz, DTS, 3/2 (L,C,R,l,r) + LFE ch, ~1536 kbps avg |Многоголосый закадровый, LostFilm|
Аудио#3: Russian: 48 kHz, DTS, 3/2 (L,C,R,l,r) + LFE ch, ~1536 kbps avg |Двухголосый закадровый, Кубик в Кубе|
Аудио#4: Russian: 48 kHz, AC3, 2/0 (L,R) ch, ~192 kbps avg |Многоголосый закадровый, Первый канал|
Аудио#5: Russian: 48 kHz, AC3, 2/0 (L,R) ch, ~192 kbps avg |Многоголосый закадровый, FOX|
Аудио#6: English: 48 kHz, DTS, 3/2 (L,C,R,l,r) + LFE ch, ~1536 kbps avg
Аудио#7: English: 48 kHz, DTS, 2/0 (L,R) ch, ~768 kbps avg |Commentary| (серии 1, 4, 6, 8, 11, 12)
| Сэмпл (зеркало)
Релиз от:
Оформление: Messa-fan
скриншот   скриншот   скриншот   скриншот   скриншот   скриншот   скриншот  

General
Unique ID : 208712942399053899777482164681496477781 (0x9D04A68AC1922FB0AA3AF4446B3A4055)
Complete name : Boardwalk.Empire.S01.720p.BluRay.HDCLUB | Boardwalk.Empire.S01E01.720p.BluRay.5xRus.2xEng.HDCLUB.mkv
Format : Matroska
Format version : Version 4 / Version 2
File size : 7.26 GiB
Duration : 1h 12mn
Overall bit rate : 14.4 Mbps
Encoded date : UTC 2010-02-22 21:41:31
Writing application : mkvmerge v5.9.0 ('On The Loose') built on Dec 9 2012 15:37:01
Writing library : libebml v1.3.0 + libmatroska v1.4.0

Video
ID : 1
Format : AVC
Format/Info : Advanced Video Codec
Format profile : High@L4.1
Format settings, CABAC : Yes
Format settings, ReFrames : 4 frames
Muxing mode : Header stripping
Codec ID : V_MPEG4/ISO/AVC
Duration : 1h 12mn
Bit rate : 6 899 Kbps
Width : 1 280 pixels
Height : 720 pixels
Display aspect ratio : 16:9
Frame rate mode : Constant
Frame rate : 23.976 fps
Color space : YUV
Chroma subsampling : 4:2:0
Bit depth : 8 bits
Scan type : Progressive
Bits/(Pixel*Frame) : 0.312
Stream size : 3.49 GiB (48%)
Writing library : x264 core 116 r2057 0ba8a9c
Encoding settings : cabac=1 / ref=3 / deblock=1:-3:-3 / analyse=0x3:0x133 / me=umh / subme=10 / psy=1 / psy_rd=1.00:0.00 / mixed_ref=1 / me_range=32 / chroma_me=1 / trellis=2 / 8x8dct=1 / cqm=0 / deadzone=21,11 / fast_pskip=0 / chroma_qp_offset=-2 / threads=18 / sliced_threads=0 / nr=0 / decimate=0 / interlaced=0 / bluray_compat=0 / constrained_intra=0 / bframes=7 / b_pyramid=2 / b_adapt=2 / b_bias=0 / direct=3 / weightb=1 / open_gop=0 / weightp=2 / keyint=250 / keyint_min=23 / scenecut=40 / intra_refresh=0 / rc_lookahead=40 / rc=crf / mbtree=0 / crf=16.0 / qcomp=0.65 / qpmin=0 / qpmax=51 / qpstep=4 / vbv_maxrate=50000 / vbv_bufsize=50000 / crf_max=0.0 / nal_hrd=none / ip_ratio=1.25 / pb_ratio=1.25 / aq=1:0.65
Language : English
Default : Yes
Forced : No

Audio #1
ID : 2
Format : DTS
Format/Info : Digital Theater Systems
Mode : 16
Format settings, Endianness : Big
Muxing mode : Header stripping
Codec ID : A_DTS
Duration : 1h 12mn
Bit rate mode : Constant
Bit rate : 1 509 Kbps
Channel(s) : 6 channels
Channel positions : Front: L C R, Side: L R, LFE
Sampling rate : 48.0 KHz
Bit depth : 24 bits
Compression mode : Lossy
Stream size : 781 MiB (10%)
Title : DTS 5.1 1536 kbps - Одноголосый закадровый, Ю. Сербин
Language : Russian
Default : Yes
Forced : No

Audio #2
ID : 3
Format : DTS
Format/Info : Digital Theater Systems
Mode : 16
Format settings, Endianness : Big
Muxing mode : Header stripping
Codec ID : A_DTS
Duration : 1h 12mn
Bit rate mode : Constant
Bit rate : 1 509 Kbps
Channel(s) : 6 channels
Channel positions : Front: L C R, Side: L R, LFE
Sampling rate : 48.0 KHz
Bit depth : 24 bits
Compression mode : Lossy
Stream size : 781 MiB (10%)
Title : DTS 5.1 1536 kbps - Многоголосый закадровый, LostFilm.TV
Language : Russian
Default : No
Forced : No

Audio #3
ID : 4
Format : DTS
Format/Info : Digital Theater Systems
Mode : 16
Format settings, Endianness : Big
Muxing mode : Header stripping
Codec ID : A_DTS
Duration : 1h 12mn
Bit rate mode : Constant
Bit rate : 1 509 Kbps
Channel(s) : 6 channels
Channel positions : Front: L C R, Side: L R, LFE
Sampling rate : 48.0 KHz
Bit depth : 24 bits
Compression mode : Lossy
Stream size : 781 MiB (10%)
Title : DTS 5.1 1536 kbps - Двухголосый закадровый, Кубик в Кубе
Language : Russian
Default : No
Forced : No

Audio #4
ID : 5
Format : AC-3
Format/Info : Audio Coding 3
Mode extension : CM (complete main)
Format settings, Endianness : Big
Muxing mode : Header stripping
Codec ID : A_AC3
Duration : 1h 12mn
Bit rate mode : Constant
Bit rate : 192 Kbps
Channel(s) : 2 channels
Channel positions : Front: L R
Sampling rate : 48.0 KHz
Bit depth : 16 bits
Compression mode : Lossy
Stream size : 99.4 MiB (1%)
Title : AC3 2.0 192 kbps - Многоголосый закадровый, Первый канал
Language : Russian
Default : No
Forced : No

Audio #5
ID : 6
Format : AC-3
Format/Info : Audio Coding 3
Mode extension : CM (complete main)
Format settings, Endianness : Big
Muxing mode : Header stripping
Codec ID : A_AC3
Duration : 1h 12mn
Bit rate mode : Constant
Bit rate : 192 Kbps
Channel(s) : 2 channels
Channel positions : Front: L R
Sampling rate : 48.0 KHz
Bit depth : 16 bits
Compression mode : Lossy
Stream size : 99.4 MiB (1%)
Title : AC3 2.0 192 kbps - Многоголосый закадровый, FOX
Language : Russian
Default : No
Forced : No

Audio #6
ID : 7
Format : DTS
Format/Info : Digital Theater Systems
Mode : 16
Format settings, Endianness : Big
Muxing mode : Header stripping
Codec ID : A_DTS
Duration : 1h 12mn
Bit rate mode : Constant
Bit rate : 1 509 Kbps
Channel(s) : 6 channels
Channel positions : Front: L C R, Side: L R, LFE
Sampling rate : 48.0 KHz
Bit depth : 24 bits
Compression mode : Lossy
Stream size : 781 MiB (10%)
Title : DTS 5.1 1536 kbps
Language : English
Default : No
Forced : No

Audio #7
ID : 8
Format : DTS
Format/Info : Digital Theater Systems
Mode : 16
Format settings, Endianness : Big
Muxing mode : Header stripping
Codec ID : A_DTS
Duration : 1h 12mn
Bit rate mode : Constant
Bit rate : 768 Kbps
Channel(s) : 6 channels
Channel positions : Front: L C R, Side: L R, LFE
Sampling rate : 48.0 KHz
Bit depth : 24 bits
Compression mode : Lossy
Stream size : 397 MiB (5%)
Title : Commentary
Language : English
Default : No
Forced : No

Text #1
ID : 9
Format : UTF-8
Codec ID : S_TEXT/UTF8
Codec ID/Info : UTF-8 Plain Text
Language : Russian
Default : No
Forced : No

Text #2
ID : 10
Format : UTF-8
Codec ID : S_TEXT/UTF8
Codec ID/Info : UTF-8 Plain Text
Language : Ukrainian
Default : No
Forced : No

Text #3
ID : 11
Format : UTF-8
Codec ID : S_TEXT/UTF8
Codec ID/Info : UTF-8 Plain Text
Language : English
Default : No
Forced : No

Menu
00:00:00.000 : en:00:00:00.000
00:01:37.347 : en:00:01:37.347
00:08:21.960 : en:00:08:21.960
00:18:15.386 : en:00:18:15.386
00:34:20.976 : en:00:34:20.976
00:46:04.220 : en:00:46:04.220
00:59:44.080 : en:00:59:44.080
01:11:00.089 : en:01:11:00.089
АТЛАНТИК СИТИ, 1920
Когда алкоголь объявили вне закона, те, кто вне закона, стали королями
kino.freetor.icu



Скачать Подпольная империя через торрент http://i55.fastpic.ru/big/2013/0822/f4/48244ef291aaa1cc9f4be261a02fdef4.png Скачать, смотреть онлайн Подпольная империя бесплантно в хорошем качестве Описание: 1920 год. Через несколько часов Атлантик-Сити - столица развлечений и порока, как и вся Америка, вступит в эпоху «Сухого закона». ... 9 10 18
Info! Золотая раздача, скачанное не засчитывается.
Торрент: Зарегистрирован [2013-10-06 23:36] · скачан: 195 раз
Статус: √ проверено
Размер: 58.14 GB
Как cкачать? Как скачать Подпольная империя через торрент | UTorrent



Последний раз редактировалось: Messa-fan (2013-12-16 21:36), всего редактировалось 3 раз(а)

28-11-2019 20:33  

Отключить всю рекламу на сайте

22-08-2013 18:21 Подпольная империя Скачать торрент  

актер с права,с постера внизу появится в сериале только в третьем сезонеkino.freetor.icu



22-08-2013 18:38 Подпольная империя Скачать торрент  

Assasinca
Я по возможности позже залью так же 2й и 3й сезоны. Оформление соответственно делалось универсальным.kino.freetor.icu



22-08-2013 18:43 Подпольная империя Скачать торрент  

жду не дождусь 4-ый сезон .Только в озвучке Юрия Сербина kino.freetor.icu



23-08-2013 04:09 Подпольная империя Скачать торрент  

помогу с раздачейkino.freetor.icu



03-09-2013 12:20 Подпольная империя Скачать торрент  

да что ж размер такой большой?kino.freetor.icu



03-09-2013 12:42 Подпольная империя Скачать торрент  

satyrik
Качество, друг мой, качество.
Да и дорожки прилично весят.kino.freetor.icu



19-10-2013 22:54 Подпольная империя Скачать торрент  

За качество благодарим)kino.freetor.icu



25-10-2013 08:42 Подпольная империя Скачать торрент  

:shoot2:Посмотрим :threaten:kino.freetor.icu



15-01-2014 19:51 Подпольная империя Скачать торрент  

Сэмпл жесть! Сделайте сэмп с отрывком в котором говорят главные герои...главное Накиkino.freetor.icu



19-08-2016 17:57 Подпольная империя Скачать торрент  

.kino.freetor.icu



14-11-2017 12:28 Подпольная империя Скачать торрент  

Встаньте пожалуйста на раздачу народ!))kino.freetor.icu



17-02-2018 17:27 Подпольная империя Скачать торрент  

дайте скорости, выложите по возможности все сезоны от Кубов, или скажите где скачать???kino.freetor.icu



    Дорогой пользователь! Огромная просьба, поблагодарите релизера, оцените раздачу и оставьте свои комментарий, если Вы скачали Подпольная империя через торрент бесплатно!
    Комментировать посты могут только пользователи прошедшие не сложную регистрацию
    Показать сообщения:    

    Подпольная империя через торрент
    Скачать бесплатно Подпольная империя
    Подпольная империя скачать торрент
    Подпольная империя смотреть онлайн
    Cкачать фильм Подпольная империя бесплатно
    Подпольная империя скачать торрент в хорошем качестве
    Подпольная империя смотреть онлайн бесплатно в хорошем качестве


    Вы не можете начинать темы
    Вы не можете отвечать на сообщения
    Вы не можете редактировать свои сообщения
    Вы не можете удалять свои сообщения
    Вы не можете голосовать в опросах
    Вы не можете прикреплять файлы к сообщениям
    Вы можете скачивать файлы