Присоединяйтесь к нам в Telegram!, здесь всегда актуальный адрес сайта, оперативная поддержка и многое другое!!

>

5.9

iTunes

7.4

iTunes

9.4

1 сезон

1

7.4

2 сезон

7.2

iTunes

7.3

1 сезон

13

6.1

iTunes

8.3

GOG

30

ULTIMATE

pack

9.9

Лицензия

ВАЖНО

ИГРА 18+

pack

7.3

RePack

MK11

7.7

RePack

jed

7.8

RePack

fifa19

8.5

RePack

RDR2

RePack

NEED FOR SPEED™ PAYBACK

5 сезон

9 сезон

Бесстыжие 9 сезон

Все сериалы

все сериалы на PB.wtf

RePack

FAR CRY 5

Anonymous, доброе утро, мы катастрофически не успеваем собрать деньги на оплату серверов, помогите нам пожалуйста 5,10,15р., для нас важна любая помощь . В качестве благодарности мы отключим Вам всю рекламу на сайте (укажите свой ник в строку Ваше имя)!

×
  
Magnet ссылка

Восстание / Uprising (Джон Эвнет / Jon Avnet) [2001 , США , драма, военный , WEB-DL , VO , Original] kino.freetor.icu

Восстание через торрент kino.freetor.icu

Размер: 5.63 GB | Добавлен: 8 лет назад | Торрент скачан:35 раз
Смотреть онлайн Восстание | Скачать    Ребята, помогите собрать деньги на оплату серверов!!!

03-11-2013 06:43 Восстание Скачать торрент  

Восстание / Uprising


Слоган: «They did the one thing the Nazis never expected. They fought back»
Год выпуска: 2001
Страна: США
Жанр: драма, военный
Продолжительность: 02:53:24
Перевод: Любительский (одноголосый) + Оригинальный

Субтитры: English

Режиссер: Джон Эвнет / Jon Avnet
В ролях: Лили Собески (Tosia Altman), Хэнк Азария (Mordechai Anielewicz), Дэвид Швиммер (Yitzhak Zuckerman), Джон Войт (Major-General Jurgen Stroop), Дональд Сазерленд (Adam Czerniakow), Стивен Мойер (Kazik Rotem), Сэди Фрост (Zivia Lubetkin), Рада Митчелл (Mira Fruchner), Мили Авитал (Deworah Baron), Эрик Лайвли (Arie Wilner), Александра Холден (Frania Beatus), Джон Алес (Marek Edelman)

Описание: 18 января 1943 года. Нацисты собираются раз и навсегда покончить с евреями варшавского гетто, отправив их в «последний путь» - в концлагерь Треблинка. Но их зловещие планы были разрушены: вооруженные мужчины и женщины из «Еврейской Боевой Организации» дали отпор фашистам!

Рейтинг
kinopoisk.ru: 6.524 (44)
imdb.com: 7.20 (3114)
Мировая премьера: 4 ноября 2001

  • Качество: iTunes WEB-DL
  • Формат: MKV
  • Видео кодек: AVC
  • Аудио кодек: AC3
  • Видео: AVC, 1278x720 (16:9), 3977 kbps, 23,976 fps, 0,180 bpp
  • Аудио №1: русский / AC3 / 2.0 / 48 kHz / 192 kbps / 16 bit
  • Аудио №2: английский / AC3 / 5.1 / 48 kHz / 384 kbps / 16 bit
    Format : Matroska
    Format version : Version 4 / Version 2
    File size : 5.63 GiB
    Duration : 2h 53mn
    Overall bit rate : 4 646 Kbps
    Encoded date : UTC 2013-11-01 19:56:19
    Writing application : mkvmerge v6.2.0 ('Promised Land') built on Apr 28 2013 12:22:01
    Writing library : libebml v1.3.0 + libmatroska v1.4.0

    Video
    ID : 1
    Format : AVC
    Format/Info : Advanced Video Codec
    Format profile : High@L3.1
    Format settings, CABAC : No
    Format settings, ReFrames : 2 frames
    Codec ID : V_MPEG4/ISO/AVC
    Duration : 2h 53mn
    Bit rate : 3 978 Kbps
    Width : 1 278 pixels
    Height : 720 pixels
    Display aspect ratio : 16:9
    Frame rate : 23.976 fps
    Color space : YUV
    Chroma subsampling : 4:2:0
    Bit depth : 8 bits
    Scan type : Progressive
    Bits/(Pixel*Frame) : 0.180
    Stream size : 4.82 GiB (86%)
    Language : English
    Default : Yes
    Forced : No
    Color primaries : BT.709-5, BT.1361, IEC 61966-2-4, SMPTE RP177
    Transfer characteristics : BT.709-5, BT.1361
    Matrix coefficients : BT.709-5, BT.1361, IEC 61966-2-4 709, SMPTE RP177

    Audio #1
    ID : 2
    Format : AC-3
    Format/Info : Audio Coding 3
    Mode extension : CM (complete main)
    Codec ID : A_AC3
    Duration : 2h 53mn
    Bit rate mode : Constant
    Bit rate : 192 Kbps
    Channel(s) : 2 channels
    Channel positions : Front: L R
    Sampling rate : 48.0 KHz
    Bit depth : 16 bits
    Compression mode : Lossy
    Stream size : 238 MiB (4%)
    Language : Russian
    Default : Yes
    Forced : No

    Audio #2
    ID : 3
    Format : AC-3
    Format/Info : Audio Coding 3
    Mode extension : CM (complete main)
    Codec ID : A_AC3
    Duration : 2h 53mn
    Bit rate mode : Constant
    Bit rate : 384 Kbps
    Channel(s) : 6 channels
    Channel positions : Front: L C R, Side: L R, LFE
    Sampling rate : 48.0 KHz
    Bit depth : 16 bits
    Compression mode : Lossy
    Stream size : 476 MiB (8%)
    Language : English
    Default : No
    Forced : No

    Text
    ID : 4
    Format : UTF-8
    Codec ID : S_TEXT/UTF8
    Codec ID/Info : UTF-8 Plain Text
    Language : English
    Default : No
    Forced : No

    Menu
    00:00:00.000 : en:Chapter 1
    00:04:07.000 : en:Chapter 2
    00:08:06.000 : en:Chapter 3
    00:12:16.000 : en:Chapter 4
    00:17:35.000 : en:Chapter 5
    00:22:56.000 : en:Chapter 6
    00:28:19.000 : en:Chapter 7
    00:32:13.000 : en:Chapter 8
    00:36:24.000 : en:Chapter 9
    00:40:47.000 : en:Chapter 10
    00:44:44.000 : en:Chapter 11
    00:54:54.000 : en:Chapter 12
    00:57:52.000 : en:Chapter 13
    01:03:50.000 : en:Chapter 14
    01:06:45.000 : en:Chapter 15
    01:11:00.000 : en:Chapter 16
    01:13:47.000 : en:Chapter 17
    01:16:55.000 : en:Chapter 18
    01:19:56.000 : en:Chapter 19
    01:23:26.000 : en:Chapter 20
    01:28:09.000 : en:Chapter 21
    01:31:10.000 : en:Chapter 22
    01:37:21.000 : en:Chapter 23
    01:41:05.000 : en:Chapter 24
    01:44:35.000 : en:Chapter 25
    01:48:27.000 : en:Chapter 26
    01:54:59.000 : en:Chapter 27
    01:59:16.000 : en:Chapter 28
    02:04:31.000 : en:Chapter 29
    02:06:25.000 : en:Chapter 30
    02:09:43.000 : en:Chapter 31
    02:14:47.000 : en:Chapter 32
    02:18:49.000 : en:Chapter 33
    02:21:56.000 : en:Chapter 34
    02:25:55.000 : en:Chapter 35
    02:28:23.000 : en:Chapter 36
    02:31:57.000 : en:Chapter 37
    02:33:40.000 : en:Chapter 38
    02:37:36.000 : en:Chapter 39
    kino.freetor.icu



  • Скачать Восстание через торрент http://i2.imageban.ru/out/2013/11/03/8ae07d4fabea507aadd16e4b867e93ff.png Скачать, смотреть онлайн Восстание бесплантно в хорошем качестве Описание: 18 января 1943 года. Нацисты собираются раз и навсегда покончить с евреями варшавского гетто, отправив их в «последний путь» - в ... 8.5 10 6
    Info! Золотая раздача, скачанное не засчитывается.
    Торрент: Зарегистрирован [2013-11-03 06:45] · скачан: 35 раз
    Статус: √ проверено
    Размер: 5.63 GB
    Как cкачать? Как скачать Восстание через торрент | UTorrent

    % Раздел Тема Автор DL S | L
    Разное [ 1.6 GB ] Браззи Боты - Восстание / Brazzibots - Uprising [2020 Big Boobs Big Cocks Facesitting Fantasy Feature Fembot WEB-DL] bashai5 Скачать
    1 | 0
    Фильмы 2001-2005 [ 2.18 GB ] Восстание / Uprising [2001 военный WEB-DLRip] VO koenig Скачать
    1 | 0
    Мультсериалы [ 6.72 GB ] ТРОН: Восстание / TRON: Uprising / серии 01-09 [2012 компьютерная анимация HDTVRip DUB]] akcent Скачать
    1 | 0
    Мультсериалы [ 1023 MB ] Трон: Восстание /1-сезон / 1-3 cерии из 18 / TRON: Uprising [2012 мультфильм WEB-DLRip DUB] кэп Скачать
    1 | 0
    Мультсериалы [ 410 MB ] Трон: Восстание / TRON: Uprising / Сезон: 1 Серии: 1 из ?? / [2012 мультфильм WEB-DLRip DVO] Newton5 Скачать
    1 | 0

    28-11-2019 20:33  

    Отключить всю рекламу на сайте

      Дорогой пользователь! Огромная просьба, поблагодарите релизера, оцените раздачу и оставьте свои комментарий, если Вы скачали Восстание через торрент бесплатно!
      Комментировать посты могут только пользователи прошедшие не сложную регистрацию
      Показать сообщения:    

      Восстание через торрент
      Скачать бесплатно Восстание
      Восстание скачать торрент
      Восстание смотреть онлайн
      Cкачать фильм Восстание бесплатно
      Восстание скачать торрент в хорошем качестве
      Восстание смотреть онлайн бесплатно в хорошем качестве


      Вы не можете начинать темы
      Вы не можете отвечать на сообщения
      Вы не можете редактировать свои сообщения
      Вы не можете удалять свои сообщения
      Вы не можете голосовать в опросах
      Вы не можете прикреплять файлы к сообщениям
      Вы можете скачивать файлы