Присоединяйтесь к нам в Telegram!, здесь всегда актуальный адрес сайта, оперативная поддержка и многое другое!!

>

5.9

iTunes

7.4

iTunes

9.4

1 сезон

1

7.4

2 сезон

7.2

iTunes

7.3

iTunes

13

6.1

iTunes

8.3

Пиратка

30

ULTIMATE

pack

9.9

Лицензия

ВАЖНО

ИГРА 18+

pack

7.3

RePack

MK11

7.7

RePack

jed

7.8

RePack

fifa19

8.5

RePack

RDR2

RePack

NEED FOR SPEED™ PAYBACK

5 сезон

9 сезон

Бесстыжие 9 сезон

Все сериалы

все сериалы на PB.wtf

RePack

FAR CRY 5

Anonymous, доброе утро, мы катастрофически не успеваем собрать деньги на оплату серверов, помогите нам пожалуйста 5,10,15р., для нас важна любая помощь . В качестве благодарности мы отключим Вам всю рекламу на сайте (укажите свой ник в строку Ваше имя)!

×
  
Magnet ссылка

Каньоны / The Canyons (Пол Шредер / Paul Schrader) [ 2013 , США , триллер, драма , WEB-DL 720p , AVO ] kino.freetor.icu

Каньоны через торрент kino.freetor.icu

Размер: 3.24 GB | Добавлен: 8 лет назад | Торрент скачан:98 раз
Смотреть онлайн Каньоны | Скачать    Ребята, помогите собрать деньги на оплату серверов!!!

14-08-2013 16:09 Каньоны Скачать торрент  

Каньоны / The Canyons

Слоган: «It's not the hills.»
Год выпуска: 2013
Страна: США
Жанр: триллер, драма
Продолжительность: 01:39:36
Перевод: Любительский (одноголосый) [VANO]

Субтитры: English
Режиссер: Пол Шредер / Paul Schrader
В ролях: Линдси Лохан (Tara), Джеймс Дин (Christian), Нолан Фанк (Ryan), Аманда Брукс (Gina), Тениль Хьюстон (Cynthia), Гас Ван Сент (Dr. Campbell), Джарод Эйнсон (Hoodie Guy), Chris Zeischegg (Reed), Виктор Фишбарг (Randall), Джим Бивен (Jon), Филип Павел (Erik), Лили Лабё (Young Hot Girl)
Описание: Молодость, гламур, секс и Лос-Анджелес, где-то в 2012-м.
Фильм - о судьбе двух влюбленных в "городе греха", Лос-Анджелесе. Они молоды, жаждут славы и денег, одержимы страстью. По законам жанра, где-то рядом, естественно, оказывается смерть, и цепочка кровавых событий приводит к неожиданным последствиям.
Рейтинг
kinopoisk.ru: 5.188 (29)
imdb.com: 4.00 (205)
Бюджет: $250 000
Сборы в США: $31 162
Мировая премьера: 29 июля 2013

  • Качество: WEB-DL 720p
  • Формат: mkv
  • Видео кодек:AVC
  • Аудио кодек: AC3
  • Видео: AVC, 1280x540 (2.35:1), 23.976 fps, 3 792 Kbps (0.229 bit/pixel)
  • Аудио #1: AC-3, 48.0 KHz, 6 ch, 384 Kbps, CBR (Russian)
  • Аудио #2: AC-3, 48.0 KHz, 6 ch, 384 Kbps, CBR (English)
    • Стивен Содерберг хотел смонтировать фильм, но Пол Шредер ему отказал.
    • Съемочный процесс фильма описан в нашумевшей статье «Here is what happens when you cast Lindsay Lohan in your movie» (Вот что происходит, когда вы берете Линдси Лохан на роль в своем фильме) журнала The New York Times.
    Общее
    Уникальный идентификатор : 190537815128224909680010168387652982865 (0x8F583F9522589FC7855455E0FDBE9851)
    Полное имя : D:ТорентыThe.Canyons.2013.L1.WEB-DL.720p.mkv
    Формат : Matroska
    Версия формата : Version 4 / Version 2
    Размер файла : 3,24 Гбайт
    Продолжительность : 1 ч. 39 м.
    Общий поток : 4653 Кбит/сек
    Дата кодирования : UTC 2013-08-14 09:32:06
    Программа кодирования : mkvmerge v6.1.0 ('Old Devil') built on Mar 4 2013 09:10:42
    Библиотека кодирования : libebml v1.3.0 + libmatroska v1.4.0

    Видео
    Идентификатор : 1
    Формат : AVC
    Формат/Информация : Advanced Video Codec
    Профиль формата : Main@L3.1
    Параметр CABAC формата : Нет
    Параметр ReFrames формата : 2 кадра
    Параметр GOP формата : M=2, N=68
    Идентификатор кодека : V_MPEG4/ISO/AVC
    Продолжительность : 1 ч. 39 м.
    Битрейт : 3792 Кбит/сек
    Ширина : 1280 пикселей
    Высота : 540 пикселей
    Соотношение сторон : 2,40:1
    Режим частоты кадров : Постоянный
    Частота кадров : 23,976 кадра/сек
    Цветовое пространство : YUV
    Субдискретизация насыщенности : 4:2:0
    Битовая глубина : 8 бит
    Тип развёртки : Прогрессивная
    Бит/(Пиксели*Кадры) : 0.229
    Размер потока : 2,64 Гбайт (82%)
    Язык : English
    Default : Да
    Forced : Нет
    Основные цвета : BT.709
    Характеристики трансфера : BT.709
    Коэффициенты матрицы : BT.709

    Аудио #1
    Идентификатор : 2
    Формат : AC-3
    Формат/Информация : Audio Coding 3
    Расширение режима : CM (complete main)
    Параметр Endianness формата : Big
    Идентификатор кодека : A_AC3
    Продолжительность : 1 ч. 39 м.
    Вид битрейта : Постоянный
    Битрейт : 384 Кбит/сек
    Каналы : 6 каналов
    Расположение каналов : Front: L C R, Side: L R, LFE
    Частота : 48,0 КГц
    Битовая глубина : 16 бит
    Метод сжатия : С потерями
    Размер потока : 274 Мбайт (8%)
    Язык : Russian
    Default : Да
    Forced : Нет

    Аудио #2
    Идентификатор : 3
    Формат : AC-3
    Формат/Информация : Audio Coding 3
    Расширение режима : CM (complete main)
    Параметр Endianness формата : Big
    Идентификатор кодека : A_AC3
    Продолжительность : 1 ч. 39 м.
    Вид битрейта : Постоянный
    Битрейт : 384 Кбит/сек
    Каналы : 6 каналов
    Расположение каналов : Front: L C R, Side: L R, LFE
    Частота : 48,0 КГц
    Битовая глубина : 16 бит
    Метод сжатия : С потерями
    Размер потока : 274 Мбайт (8%)
    Язык : English
    Default : Нет
    Forced : Нет

    Текст
    Идентификатор : 4
    Формат : UTF-8
    Идентификатор кодека : S_TEXT/UTF8
    Идентификатор кодека/Информация : UTF-8 Plain Text
    Default : Да
    Forced : Нет

    Меню
    00:00:00.000 : en:Chapter 1
    00:07:48.000 : en:Chapter 2
    00:20:30.000 : en:Chapter 3
    00:30:27.000 : en:Chapter 4
    00:39:38.000 : en:Chapter 5
    00:50:27.000 : en:Chapter 6
    01:01:25.000 : en:Chapter 7
    01:11:04.000 : en:Chapter 8
    01:19:49.000 : en:Chapter 9
    01:27:03.000 : en:Chapter 10
    01:36:09.000 : en:Chapter 11
    Сэмпл / Трейлерскриншот   скриншот   скриншот   скриншот   скриншот  
    Оформление by КЕПkino.freetor.icu



  • Скачать Каньоны через торрент http://i5.imageban.ru/out/2013/08/14/818925cb1183a4a1b95016bcd974dd76.png Скачать, смотреть онлайн Каньоны бесплантно в хорошем качестве Описание: Молодость, гламур, секс и Лос-Анджелес, где-то в 2012-м.Фильм - о судьбе двух влюбленных в "городе греха", Лос-Анджелесе. Они ... 10 10 4
    Info! Золотая раздача, скачанное не засчитывается.
    Торрент: Зарегистрирован [2013-11-27 16:10] · скачан: 98 раз
    Статус: √ проверено
    Размер: 3.24 GB
    Как cкачать? Как скачать Каньоны через торрент | UTorrent

    % Раздел Тема Автор DL S | L
    Фильмы (Blu-ray, BD-Remux, HDDVD) [ 17.02 GB ] Каньоны / The Canyons [2013 BD-Remux ] кэп Скачать
    1 | 0
    Фильмы 2013 (Звук TS, Cam, VO, DVO) [ 1.46 GB ] Каньоны / The Canyons [2013 HDRip Чистый звук] MIXX_ON Скачать
    1 | 0


    Последний раз редактировалось: Ворон (2013-08-14 16:11), всего редактировалось 1 раз

    28-11-2019 20:33  

    Отключить всю рекламу на сайте

    14-08-2013 16:10 Каньоны Скачать торрент  

    Тема... раскрыта полностью)))kino.freetor.icu



    15-08-2013 08:02 Каньоны Скачать торрент  

    Vetаl спасибо!!
    думаю стоит глянуть на ночь.. а вось чего приснится kino.freetor.icu



      Дорогой пользователь! Огромная просьба, поблагодарите релизера, оцените раздачу и оставьте свои комментарий, если Вы скачали Каньоны через торрент бесплатно!
      Комментировать посты могут только пользователи прошедшие не сложную регистрацию
      Показать сообщения:    

      Каньоны через торрент
      Скачать бесплатно Каньоны
      Каньоны скачать торрент
      Каньоны смотреть онлайн
      Cкачать фильм Каньоны бесплатно
      Каньоны скачать торрент в хорошем качестве
      Каньоны смотреть онлайн бесплатно в хорошем качестве


      Вы не можете начинать темы
      Вы не можете отвечать на сообщения
      Вы не можете редактировать свои сообщения
      Вы не можете удалять свои сообщения
      Вы не можете голосовать в опросах
      Вы не можете прикреплять файлы к сообщениям
      Вы можете скачивать файлы