>

8.4

Хороший звук

6.1

MVO

6.4

Line & MVO

1

7.4

1 сезон

6.8

iTunes

7.2

1 сезон

13

6.7

1 сезон

8.3

RePack

30

Deluxe

pack

9.9

Лицензия

ВАЖНО

ИГРА 18+

pack

7.3

RePack

MK11

7.7

RePack

jed

7.8

RePack

fifa19

8.5

RePack

RDR2

RePack

NEED FOR SPEED™ PAYBACK

4 сезон

9 сезон

Бесстыжие 9 сезон

Все сериалы

все сериалы на PB.wtf

RePack

FAR CRY 5

Anonymous, доброе утро, мы катастрофически не успеваем собрать деньги на оплату серверов, помогите нам пожалуйста 5,10,15р., для нас важна любая помощь . В качестве благодарности мы отключим Вам всю рекламу на сайте (укажите свой ник в строку Ваше имя)!

×
  
Magnet ссылка

Подпольная Империя / Boardwalk Empire (Сезон: 1) (Тимоти Ван Паттен, Аллен Култер, Джереми Подесва) [2010 г., криминальная драма, BDRip,]MVO(Первый канал)+Original kino.freetor.icu

Подпольная Империя через торрент kino.freetor.icu

Размер: 11.81 GB | Добавлен: 7 лет 7 мес. назад | Торрент скачан:1448 раз
Смотреть онлайн Подпольная Империя | Скачать    Ребята, помогите собрать деньги на оплату серверов!!!

17-09-2013 07:16 Подпольная Империя Скачать торрент  



Подпольная Империя / Boardwalk Empire
«Atlantic City, 1920. When alcohol was outlawed, outlaws became kings.»
Год выпуска: 2010
Страна: США
Жанр: криминальная драма,
Продолжительность: ~01:12:21
Перевод: Профессиональный многоголосый закадровый
(Первый канал)

Режиссер: Тимоти Ван Паттен Аллен Култер Джереми Подесва



В ролях: Анна Катарина, Стив Бушеми, Майкл Питт, Тодд Фредерикс, Уильям Хилл, Джек Хьюстон, Николас Мартино, Пьер О'Фэррелл, Кен Следик, Ши Уигхэм,

Описание: 1920 год. Через несколько часов Атлантик-Сити — столица развлечений и порока, как и вся Америка, вступит в эпоху «Сухого закона». Енох «Наки» Томпсон, днем — городской казначей, а ночью — хитроумный гангстер со связями на самом «верху», решает воспользоваться ситуацией и получить баснословные прибыли на подпольной торговле алкоголем. Однако не он один жаждет обогатиться на новом промысле…

Качество: BDRip
Формат: AVI
Видео кодек: XviD
Аудио кодек: AC3
Видео: 720x400 (16:9), 23.976 fps, 1 999 Kbps
Аудио#1: Русский, 192 Kbps, 48.0 KHz, 2 ch (Первый канал)
Аудио#2: Английский, 192 Kbps, 48.0 KHz, 2 ch





General
Complete name : Boardwalk.Empire.s01e01.rus.eng.avi
Format : AVI
Format/Info : Audio Video Interleave
File size : 1.21 GiB
Duration : 1h 12mn
Overall bit rate : 2 397 Kbps
Writing application : VirtualDubMod 1.5.10.2 (build 2540/release)
Writing library : VirtualDubMod build 2540/release

Video
ID : 0
Format : MPEG-4 Visual
Format profile : Advanced Simple@L5
Format settings, BVOP : Yes
Format settings, QPel : No
Format settings, GMC : No warppoints
Format settings, Matrix : Default (MPEG)
Codec ID : XVID
Codec ID/Hint : XviD
Duration : 1h 12mn
Bit rate : 1 999 Kbps
Width : 720 pixels
Height : 400 pixels
Display aspect ratio : 16:9
Frame rate : 23.976 fps
Color space : YUV
Chroma subsampling : 4:2:0
Bit depth : 8 bits
Scan type : Progressive
Bits/(Pixel*Frame) : 0.289
Stream size : 1.01 GiB (83%)
Writing library : XviD 1.2.1 (UTC 2008-12-04)

Audio #1
ID : 1
Format : AC-3
Format/Info : Audio Coding 3
Mode extension : CM (complete main)
Codec ID : 2000
Duration : 1h 12mn
Bit rate mode : Constant
Bit rate : 192 Kbps
Channel(s) : 2 channels
Channel positions : Front: L R
Sampling rate : 48.0 KHz
Bit depth : 16 bits
Stream size : 99.4 MiB (8%)
Alignment : Split accross interleaves
Interleave, duration : 42 ms (1.00 video frame)
Interleave, preload duration : 500 ms

Audio #2
ID : 2
Format : AC-3
Format/Info : Audio Coding 3
Mode extension : CM (complete main)
Codec ID : 2000
Duration : 1h 12mn
Bit rate mode : Constant
Bit rate : 192 Kbps
Channel(s) : 2 channels
Channel positions : Front: L R
Sampling rate : 48.0 KHz
Bit depth : 16 bits
Stream size : 99.4 MiB (8%)
Alignment : Split accross interleaves
Interleave, duration : 42 ms (1.00 video frame)
Interleave, preload duration : 500 ms


Подпольная Империя скачать торрент


kino.freetor.icu



Скачать Подпольная Империя через торрент https://pic1.kartinco.top/images/23/ytw7t4xil4.jpg Скачать, смотреть онлайн Подпольная Империя бесплантно в хорошем качестве Описание: 1920 год. Через несколько часов Атлантик-Сити — столица развлечений и порока, как и вся Америка, вступит в эпоху «Сухого закона». ... 9.4 10 24
Info! Золотая раздача, скачанное не засчитывается.
Торрент: Зарегистрирован [2014-01-20 19:08] · скачан: 1 448 раз
Статус: √ проверено
Размер: 11.81 GB
Как cкачать? Как скачать Подпольная Империя через торрент | UTorrent

% Раздел Тема Автор DL S | L
Подпольная Империя [ 8.17 GB ] Подпольная Империя / Boardwalk Empire / Сезон: 4 Эпизод 1-12 [2013 HDTVRip] [AVO] + Original killermax2013 Скачать
1 | 0
Подпольная Империя [ 58.14 GB ] Подпольная империя / Boardwalk Empire / Сезон: 1 / Серии: 1-12 [2010 BDRip 720p] 3xMVO + AVO + DVO + Original от HDCLUB Messa-fan Скачать
1 | 1
Подпольная Империя [ 3.64 GB ] Подпольная империя / Boardwalk Empire / Сезон: 4 / Серии: 1-3 из 12 [2013 HDTVRip 720p] MVO Original Assasinca Скачать
1 | 0
Подпольная Империя [ 652 MB ] Подпольная Империя / Boardwalk Empire / Сезон: 4 Эпизод 6 [2013 HDTVRip] [AVO] + Original killermax2013 Скачать
1 | 0
Подпольная Империя [ 971 MB ] Подпольная Империя / Boardwalk Empire / Сезон: 4 Эпизод 5 [2013 HDTVRip] [AVO] + Original killermax2013 Скачать
1 | 0
Подпольная Империя [ 767 MB ] Подпольная Империя / Boardwalk Empire / Сезон: 4 Эпизод 4 [2013 HDTVRip] [AVO] + Original killermax2013 Скачать
1 | 0
Подпольная Империя [ 3.15 GB ] Подпольная Империя / Boardwalk Empire / Сезон: 4 Эпизод 1-3 [2013 HDTVRip 400p]MVO Original Assasinca Скачать
1 | 0

28-11-2019 20:33  

Отключить всю рекламу на сайте

    Дорогой пользователь! Огромная просьба, поблагодарите релизера, оцените раздачу и оставьте свои комментарий, если Вы скачали Подпольная Империя через торрент бесплатно!
    Комментировать посты могут только пользователи прошедшие не сложную регистрацию
    Показать сообщения:    

    Подпольная Империя через торрент
    Скачать бесплатно Подпольная Империя
    Подпольная Империя скачать торрент
    Подпольная Империя смотреть онлайн
    Cкачать фильм Подпольная Империя бесплатно
    Подпольная Империя скачать торрент в хорошем качестве
    Подпольная Империя смотреть онлайн бесплатно в хорошем качестве


    Вы не можете начинать темы
    Вы не можете отвечать на сообщения
    Вы не можете редактировать свои сообщения
    Вы не можете удалять свои сообщения
    Вы не можете голосовать в опросах
    Вы не можете прикреплять файлы к сообщениям
    Вы можете скачивать файлы