>

5.6

iTunes

7.4

MVO

5.7

MVO

1

7.4

1 сезон

6.8

iTunes

7.2

1 сезон

13

6.7

1 сезон

8.3

RePack

30

Deluxe

pack

9.9

Лицензия

ВАЖНО

ИГРА 18+

pack

7.3

RePack

MK11

7.7

RePack

jed

7.8

RePack

fifa19

8.5

RePack

RDR2

RePack

NEED FOR SPEED™ PAYBACK

4 сезон

9 сезон

Бесстыжие 9 сезон

Все сериалы

все сериалы на PB.wtf

RePack

FAR CRY 5

Anonymous, доброй ночи, мы катастрофически не успеваем собрать деньги на оплату серверов, помогите нам пожалуйста 5,10,15р., для нас важна любая помощь . В качестве благодарности мы отключим Вам всю рекламу на сайте (укажите свой ник в строку Ваше имя)!

×
  
Magnet ссылка

VA - Spinnin Records: Best of 2013 2013 / FLAC (tracks+cue) / lossless / House, Deep House, Electro kino.freetor.icu

VA - Spinnin Records: Best of 2013 2013 через торрент kino.freetor.icu

Размер: 942 MB | Добавлен: 7 лет 6 мес. назад | Торрент скачан:47 раз
Смотреть онлайн VA - Spinnin Records: Best of 2013 2013 | Скачать    Ребята, помогите собрать деньги на оплату серверов!!!

17-03-2014 14:47 VA - Spinnin Records: Best of 2013 2013 Скачать торрент  

VA - Spinnin Records: Best of 2013


Страна: All World
Лейбл: Spinnin Compilations
Каталог#: SPBUND438
Жанр: House, Deep House, Electro
Год выпуска: 2013
Формат: FLAC (tracks+cue)
Битрейт аудио: lossless
Продолжительность: 02:07:38
01. Martin Garrix - Animals (Original Mix) (05:04)
02. DVBBS & Borgeous - Tsunami (Original Mix) (03:56)
03. Dimitri Vegas, Moguai & Like Mike - Mammoth (Original Mix) (05:32)
04. Sander van Doorn - Joyenergizer (Original Mix) (05:14)
05. Dimitri Vegas & Like Mike vs. DVBBS & Borgeous - Stampede (Original Mix) (04:17)
06. Showtek feat. We Are Loud & Sonny Wilson - Booyah (Original Mix) (05:11)
07. Fedde Le Grand & Sultan + Ned Shepard - No Good (Extended Mix) (05:16)
08. New World Sound & Thomas Newson - Flute (Original Mix) (04:47)
09. R3hab & NERVO & Ummet Ozcan - Revolution (Instrumental Mix) (04:03)
10. Nari & Milani vs. Maurizio Gubellini feat. Nicci - Vago (Original Mix) (05:11)
11. Daddy's Groove & Cryogenix - Tilt (Club Mix) (05:56)
12. Dimitri Vegas & Like Mike vs. Sander van Doorn - Project T (Martin Garrix Remix) (05:12)
13. Carnage & Borgore - Incredible (Original Mix) (06:16)
14. Showtek & Noisecontrollers - Get Loose (Tiesto Remix) (05:43)
15. Stefano Noferini - The End (Original Mix) (06:18)
16. Ummet Ozcan - Here & Now (Original Mix) (06:16)
17. The Partysquad & Mitchell Niemeyer - #Pantsdown (Club Mix) (05:48)
18. Daddy's Groove - Stellar (Extended Club Mix) (05:37)
19. Quintino & MOTI feat. Taylr Renee - Dynamite (Original Mix) (04:05)
20. Ummet Ozcan & DJ Ghost - Airport (Original Mix) (05:47)
21. Parra for Cuva feat. Anna Naklab - Wicked Games (Original Mix) (05:58)
22. Mike Mago - The Show (Original Mix) (06:50)
23. Sander van Doorn - Neon (Club Mix) (05:59)
24. Yellow Claw feat. Rochelle - Shotgun (Original Mix) (03:13)

kino.freetor.icu



Скачать VA - Spinnin Records: Best of 2013 2013 через торрент https://pic1.kartinco.top/images/61/5a9qp.jpg Скачать, смотреть онлайн VA - Spinnin Records: Best of 2013 2013 бесплантно в хорошем качестве Треклист: Martin Garrix - Animals (Original Mix) (05:04) DVBBS & Borgeous - Tsunami (Original Mix) (03:56) Dimitri Vegas, Moguai ... 8.3 10 3
Info! Золотая раздача, скачанное не засчитывается.
Торрент: Зарегистрирован [2014-03-17 14:47] · скачан: 47 раз
Статус: √ проверено
Размер: 942 MB
Как cкачать? Как скачать VA - Spinnin Records: Best of 2013 2013 через торрент | UTorrent

28-11-2019 20:33  

Отключить всю рекламу на сайте

17-03-2014 14:49 VA - Spinnin Records: Best of 2013 2013 Скачать торрент  

Код:

-----------------------

DON'T MODIFY THIS FILE

-----------------------

PERFORMER: auCDtect Task Manager, ver. 1.6.0 RC1 build 1.6.0.1
Copyright (c) 2008-2010 y-soft. All rights reserved
http://y-soft.org

ANALYZER: auCDtect: CD records authenticity detector, version 0.8.2
Copyright (c) 2004 Oleg Berngardt. All rights reserved.
Copyright (c) 2004 Alexander Djourik. All rights reserved.

FILE: 24. Yellow Claw feat. Rochelle - Shotgun (Original Mix).flac
  Size: 24224411 Hash: 1A7E7BB1E066132DCE6E100D8E91E337 Accuracy: -m0
  Conclusion: CDDA 99%
  Signature: 481B903BED9CD5957A970C4CBB36D50DCA491F75
FILE: 23. Sander van Doorn - Neon (Club Mix).flac
  Size: 47131263 Hash: 84CE5320C2CEAFFA526C38315252030D Accuracy: -m0
  Conclusion: CDDA 100%
  Signature: C32B0E1B76E0F3B114AB2FB5E8E47AB6D47FB302
FILE: 22. Mike Mago - The Show (Original Mix).flac
  Size: 49666862 Hash: 551DB7FF8006D7C7C2F97F9D84619D66 Accuracy: -m0
  Conclusion: CDDA 99%
  Signature: 247ECD699D52737810DF560170F7DF0DAFF79FC0
FILE: 21. Parra for Cuva feat. Anna Naklab - Wicked Games (Original Mix).flac
  Size: 35382048 Hash: 0F33ABEE26276A714CEC93257896D28B Accuracy: -m0
  Conclusion: CDDA 100%
  Signature: C4918D8F1F1CB1BDD4BD77455AB61A90D1AA59D1
FILE: 20. Ummet Ozcan & DJ Ghost - Airport (Original Mix).flac
  Size: 46784881 Hash: 4F5FA61C0F62E6C13F44A443D610A86C Accuracy: -m0
  Conclusion: CDDA 100%
  Signature: 002ED90978ACC9C5D0EA9EE1A3E0A912127E0DF3
FILE: 19. Quintino & MOTI feat. Taylr Renee - Dynamite (Original Mix).flac
  Size: 32806250 Hash: 2A4FB4EEA1D8623710B6B4EDE3E85A83 Accuracy: -m0
  Conclusion: CDDA 100%
  Signature: 09ABFDC46E7ED1C2EDF11BFB9144529F7AE54DD5
FILE: 18. Daddy's Groove - Stellar (Extended Club Mix).flac
  Size: 45493918 Hash: EB522F1095D971BC9241AC13C1CD676D Accuracy: -m0
  Conclusion: CDDA 100%
  Signature: 7843B5786735ABCC4F15C27B3C473AA43CDE4579
FILE: 17. The Partysquad & Mitchell Niemeyer - #Pantsdown (Club Mix).flac
  Size: 48164473 Hash: 98333B52E8C9D937FEBFAE4552A0BBB6 Accuracy: -m0
  Conclusion: CDDA 99%
  Signature: 7B23B4F08146D0F2BE954417ABC6624EA08F2368
FILE: 16. Ummet Ozcan - Here & Now (Original Mix).flac
  Size: 47203178 Hash: DE49D5818F1D9C97D2097871716032EC Accuracy: -m0
  Conclusion: CDDA 99%
  Signature: E107D6F222C1657E852BAD570B1B679367DE1293
FILE: 15. Stefano Noferini - The End (Original Mix).flac
  Size: 48105389 Hash: F3D5E17F48FB5BDE0182FB6135AAEAD0 Accuracy: -m0
  Conclusion: CDDA 100%
  Signature: C720669CF2C9C2225F199739ABC5E58B18BF8EC5
FILE: 14. Showtek & Noisecontrollers - Get Loose (Tiesto Remix).flac
  Size: 46301056 Hash: 122555BEDE3FF8B584E34C788E5FB4C2 Accuracy: -m0
  Conclusion: CDDA 100%
  Signature: 2E3237F8176E04DC87603976C4F1CF39D931ACE6
FILE: 13. Carnage & Borgore - Incredible (Original Mix).flac
  Size: 45398803 Hash: F302117DA6403B5B954E89F84D2FD1DB Accuracy: -m0
  Conclusion: CDDA 100%
  Signature: 4B60ED31A3E0C34C8D3718E9625DD824DBB45C16
FILE: 12. Dimitri Vegas & Like Mike vs. Sander van Doorn - Project T (Martin Garrix Remix).flac
  Size: 36904688 Hash: 23239C155070E572F00F0053D7A06730 Accuracy: -m0
  Conclusion: MPEG 95%
  Signature: 6BF862E4BDC8C395A24FDD876DE88D6A87101D30
FILE: 11. Daddy's Groove & Cryogenix - Tilt (Club Mix).flac
  Size: 47083696 Hash: 8F405E176855E4CDB31890547FC924BE Accuracy: -m0
  Conclusion: CDDA 100%
  Signature: 483AE6F88606D12CE879D441FD24295CA563D5A6
FILE: 10. Nari & Milani vs. Maurizio Gubellini feat. Nicci - Vago (Original Mix).flac
  Size: 42520976 Hash: 34174C7396D9629BEEB8E9790AF270C0 Accuracy: -m0
  Conclusion: CDDA 100%
  Signature: 34E531212634341A8B15FDEBB2E4A786E1089827
FILE: 09. R3hab & NERVO & Ummet Ozcan - Revolution (Instrumental Mix).flac
  Size: 31861234 Hash: 9C3308F055BD557FA0C0A58E4CC6FB47 Accuracy: -m0
  Conclusion: CDDA 100%
  Signature: 2DFEB6693B26647FDC0551BC242038BC8F1F9DD2
FILE: 08. New World Sound & Thomas Newson - Flute (Original Mix).flac
  Size: 36783115 Hash: 85F35F899107A28A5EB1B320361B165A Accuracy: -m0
  Conclusion: MPEG 95%
  Signature: 666E07DBDBFA7709848559565748DDE96378DAB5
FILE: 07. Fedde Le Grand & Sultan + Ned Shepard - No Good (Extended Mix).flac
  Size: 46093500 Hash: 5F9B1E570071AB0D4EBC766D3588E1C7 Accuracy: -m0
  Conclusion: CDDA 100%
  Signature: 50554EEE92641CD34A661E978799C28F5B453B2A
FILE: 06. Showtek feat. We Are Loud & Sonny Wilson - Booyah (Original Mix).flac
  Size: 43168846 Hash: 1E10F984CF2CAFE5CA94C4C14A33E5B6 Accuracy: -m0
  Conclusion: CDDA 100%
  Signature: 1AC0FB71A7E24EF8AE9DDDBA7C7DF344D6431BF5
FILE: 05. Dimitri Vegas & Like Mike vs. DVBBS & Borgeous - Stampede (Original Mix).flac
  Size: 32679151 Hash: D9FF0396649C42659B37A77726EB93DB Accuracy: -m0
  Conclusion: CDDA 100%
  Signature: CEF169F11C697AE0380CB9782DD2210FFE3474FC
FILE: 04. Sander van Doorn - Joyenergizer (Original Mix).flac
  Size: 44700696 Hash: D8F76093E1BC50632D94D695B2EE2170 Accuracy: -m0
  Conclusion: CDDA 100%
  Signature: FD567BBDC0771913DD854004DDAE01E1D6559A98
FILE: 03. Dimitri Vegas, Moguai & Like Mike - Mammoth (Original Mix).flac
  Size: 45775207 Hash: 0664C5F3FBB7E272CDC02C59A1C9F6B4 Accuracy: -m0
  Conclusion: CDDA 100%
  Signature: 8FE7943BA2E28F9090C816CBCC89240BDFA44249
FILE: 02. DVBBS & Borgeous - Tsunami (Original Mix).flac
  Size: 26698792 Hash: 20C9A7D68146A1DF079AA97DA582B033 Accuracy: -m0
  Conclusion: CDDA 100%
  Signature: 2C459EBADA520699CE9C981E14C6D7099D0A2EAC
FILE: 01. Martin Garrix - Animals (Original Mix).flac
  Size: 37057344 Hash: 652C1BC6D4A3942A6B967151387186C1 Accuracy: -m0
  Conclusion: CDDA 100%
  Signature: 95E02C25E1DDCE8559D1051D8D2FA21A4A88E08D

Код:

PERFORMER "Various Artists"
TITLE "Spinnin' Records Best of 2013"
REM DATE 2013
REM DISCNUMBER 1
REM TOTALDISCS 1
REM GENRE "House"
FILE "01. Martin Garrix - Animals (Original Mix).flac" WAVE
  TRACK 01 AUDIO
    PERFORMER "Martin Garrix"
    TITLE "Animals (Original Mix)"
    INDEX 01 00:00:00
FILE "02. DVBBS & Borgeous - Tsunami (Original Mix).flac" WAVE
  TRACK 02 AUDIO
    PERFORMER "DVBBS & Borgeous"
    TITLE "Tsunami (Original Mix)"
    INDEX 01 00:00:00
FILE "03. Dimitri Vegas, Moguai & Like Mike - Mammoth (Original Mix).flac" WAVE
  TRACK 03 AUDIO
    PERFORMER "Dimitri Vegas, Moguai & Like Mike"
    TITLE "Mammoth (Original Mix)"
    INDEX 01 00:00:00
FILE "04. Sander van Doorn - Joyenergizer (Original Mix).flac" WAVE
  TRACK 04 AUDIO
    PERFORMER "Sander van Doorn"
    TITLE "Joyenergizer (Original Mix)"
    INDEX 01 00:00:00
FILE "05. Dimitri Vegas & Like Mike vs. DVBBS & Borgeous - Stampede (Original Mix).flac" WAVE
  TRACK 05 AUDIO
    PERFORMER "Dimitri Vegas & Like Mike vs. DVBBS & Borgeous"
    TITLE "Stampede (Original Mix)"
    INDEX 01 00:00:00
FILE "06. Showtek feat. We Are Loud & Sonny Wilson - Booyah (Original Mix).flac" WAVE
  TRACK 06 AUDIO
    PERFORMER "Showtek feat. We Are Loud & Sonny Wilson"
    TITLE "Booyah (Original Mix)"
    INDEX 01 00:00:00
FILE "07. Fedde Le Grand & Sultan + Ned Shepard - No Good (Extended Mix).flac" WAVE
  TRACK 07 AUDIO
    PERFORMER "Fedde Le Grand & Sultan + Ned Shepard"
    TITLE "No Good (Extended Mix)"
    INDEX 01 00:00:00
FILE "08. New World Sound & Thomas Newson - Flute (Original Mix).flac" WAVE
  TRACK 08 AUDIO
    PERFORMER "New World Sound & Thomas Newson"
    TITLE "Flute (Original Mix)"
    INDEX 01 00:00:00
FILE "09. R3hab & NERVO & Ummet Ozcan - Revolution (Instrumental Mix).flac" WAVE
  TRACK 09 AUDIO
    PERFORMER "R3hab & NERVO & Ummet Ozcan"
    TITLE "Revolution (Instrumental Mix)"
    INDEX 01 00:00:00
FILE "10. Nari & Milani vs. Maurizio Gubellini feat. Nicci - Vago (Original Mix).flac" WAVE
  TRACK 10 AUDIO
    PERFORMER "Nari & Milani vs. Maurizio Gubellini feat. Nicci"
    TITLE "Vago (Original Mix)"
    INDEX 01 00:00:00
FILE "11. Daddy's Groove & Cryogenix - Tilt (Club Mix).flac" WAVE
  TRACK 11 AUDIO
    PERFORMER "Daddy's Groove & Cryogenix"
    TITLE "Tilt (Club Mix)"
    INDEX 01 00:00:00
FILE "12. Dimitri Vegas & Like Mike vs. Sander van Doorn - Project T (Martin Garrix Remix).flac" WAVE
  TRACK 12 AUDIO
    PERFORMER "Dimitri Vegas & Like Mike vs. Sander van Doorn"
    TITLE "Project T (Martin Garrix Remix)"
    INDEX 01 00:00:00
FILE "13. Carnage & Borgore - Incredible (Original Mix).flac" WAVE
  TRACK 13 AUDIO
    PERFORMER "Carnage & Borgore"
    TITLE "Incredible (Original Mix)"
    INDEX 01 00:00:00
FILE "14. Showtek & Noisecontrollers - Get Loose (Tiesto Remix).flac" WAVE
  TRACK 14 AUDIO
    PERFORMER "Showtek & Noisecontrollers"
    TITLE "Get Loose (Tiesto Remix)"
    INDEX 01 00:00:00
FILE "15. Stefano Noferini - The End (Original Mix).flac" WAVE
  TRACK 15 AUDIO
    PERFORMER "Stefano Noferini"
    TITLE "The End (Original Mix)"
    INDEX 01 00:00:00
FILE "16. Ummet Ozcan - Here & Now (Original Mix).flac" WAVE
  TRACK 16 AUDIO
    PERFORMER "Ummet Ozcan"
    TITLE "Here & Now (Original Mix)"
    INDEX 01 00:00:00
FILE "17. The Partysquad & Mitchell Niemeyer - #Pantsdown (Club Mix).flac" WAVE
  TRACK 17 AUDIO
    PERFORMER "The Partysquad & Mitchell Niemeyer"
    TITLE "#Pantsdown (Club Mix)"
    INDEX 01 00:00:00
FILE "18. Daddy's Groove - Stellar (Extended Club Mix).flac" WAVE
  TRACK 18 AUDIO
    PERFORMER "Daddy's Groove"
    TITLE "Stellar (Extended Club Mix)"
    INDEX 01 00:00:00
FILE "19. Quintino & MOTI feat. Taylr Renee - Dynamite (Original Mix).flac" WAVE
  TRACK 19 AUDIO
    PERFORMER "Quintino & MOTI feat. Taylr Renee"
    TITLE "Dynamite (Original Mix)"
    INDEX 01 00:00:00
FILE "20. Ummet Ozcan & DJ Ghost - Airport (Original Mix).flac" WAVE
  TRACK 20 AUDIO
    PERFORMER "Ummet Ozcan & DJ Ghost"
    TITLE "Airport (Original Mix)"
    INDEX 01 00:00:00
FILE "21. Parra for Cuva feat. Anna Naklab - Wicked Games (Original Mix).flac" WAVE
  TRACK 21 AUDIO
    PERFORMER "Parra for Cuva feat. Anna Naklab"
    TITLE "Wicked Games (Original Mix)"
    INDEX 01 00:00:00
FILE "22. Mike Mago - The Show (Original Mix).flac" WAVE
  TRACK 22 AUDIO
    PERFORMER "Mike Mago"
    TITLE "The Show (Original Mix)"
    INDEX 01 00:00:00
FILE "23. Sander van Doorn - Neon (Club Mix).flac" WAVE
  TRACK 23 AUDIO
    PERFORMER "Sander van Doorn"
    TITLE "Neon (Club Mix)"
    INDEX 01 00:00:00
FILE "24. Yellow Claw feat. Rochelle - Shotgun (Original Mix).flac" WAVE
  TRACK 24 AUDIO
    PERFORMER "Yellow Claw feat. Rochelle"
    TITLE "Shotgun (Original Mix)"
    INDEX 01 00:00:00

kino.freetor.icu



09-10-2015 18:50 VA - Spinnin Records: Best of 2013 2013 Скачать торрент  

раздайте пожалуйста.kino.freetor.icu



    Дорогой пользователь! Огромная просьба, поблагодарите релизера, оцените раздачу и оставьте свои комментарий, если Вы скачали VA - Spinnin Records: Best of 2013 2013 через торрент бесплатно!
    Комментировать посты могут только пользователи прошедшие не сложную регистрацию
    Показать сообщения:    

    VA - Spinnin Records: Best of 2013 2013 через торрент
    Скачать бесплатно VA - Spinnin Records: Best of 2013 2013
    VA - Spinnin Records: Best of 2013 2013 скачать торрент
    VA - Spinnin Records: Best of 2013 2013 смотреть онлайн
    Cкачать фильм VA - Spinnin Records: Best of 2013 2013 бесплатно
    VA - Spinnin Records: Best of 2013 2013 скачать торрент в хорошем качестве
    VA - Spinnin Records: Best of 2013 2013 смотреть онлайн бесплатно в хорошем качестве


    Вы не можете начинать темы
    Вы не можете отвечать на сообщения
    Вы не можете редактировать свои сообщения
    Вы не можете удалять свои сообщения
    Вы не можете голосовать в опросах
    Вы не можете прикреплять файлы к сообщениям
    Вы можете скачивать файлы