Присоединяйтесь к нам в Telegram!, здесь всегда актуальный адрес сайта, оперативная поддержка и многое другое!!

>

5.9

iTunes

7.4

iTunes

9.4

1 сезон

1

7.4

2 сезон

7.2

iTunes

7.3

1 сезон

13

6.1

iTunes

8.3

Пиратка

30

ULTIMATE

pack

9.9

Лицензия

ВАЖНО

ИГРА 18+

pack

7.3

RePack

MK11

7.7

RePack

jed

7.8

RePack

fifa19

8.5

RePack

RDR2

RePack

NEED FOR SPEED™ PAYBACK

5 сезон

9 сезон

Бесстыжие 9 сезон

Все сериалы

все сериалы на PB.wtf

RePack

FAR CRY 5

Anonymous, доброй ночи, мы катастрофически не успеваем собрать деньги на оплату серверов, помогите нам пожалуйста 5,10,15р., для нас важна любая помощь . В качестве благодарности мы отключим Вам всю рекламу на сайте (укажите свой ник в строку Ваше имя)!

×
  
Magnet ссылка

Животное / Animal (Бретт Симмонс / Bret Simmons) [ 2013 , США , ужасы, триллер , WEB-DLRip 720(AVC) ] VO (den904 (СТЁБНЫЙ ПЕРЕВОД)) kino.freetor.icu

Животное через торрент kino.freetor.icu

Размер: 2.43 GB | Добавлен: 7 лет 5 мес. назад | Торрент скачан:152 раза
Смотреть онлайн Животное | Скачать    Ребята, помогите собрать деньги на оплату серверов!!!

28-06-2014 01:41 Животное Скачать торрент  

Животное / Animal«Fear lives in the dark»
Год выпуска: 2014
Страна: США
Жанр: ужасы, триллер
Продолжительность: 01:21:47
Перевод: Любительский (одноголосый)den904 (СТЁБНЫЙ ПЕРЕВОД)
Субтитры: Вшитые отключаемые русские (на песню в титрах)
Режиссер: Бретт Симмонс / Bret Simmons
Сценарий: Томми Войцеховский / Thommy Wojciechowski, Катрин Трильо / Catherine Trillo
Продюсер: Келли Дин Смит / Kelly Dean Smith, Колин Тейс / Colin Theys, Эмбер Трусделл / Ember Truesdell, Эндрю Гернхард / Andrew Gernhard, Томми Войцеховский / Thommy Wojciechowski
Оператор: Скотт Виниг / Scott Winig
Композитор: Томэндэнди / tomandandy
В ролях:
Джереми Самптер (Matt), Элизабет Гиллис (Mandy), Джои Лорен Эдамс (Vicky), Кеке Палмер (Alissa), Амори Ноласко, Паркер Янг (Jeff), Ив, Пол Яконо (Sean), Торстен Кэй
Мировая премьера: 13 июня 2014
Описание:
Группа друзей хотела просто весело провести выходные, а в итоге они оказались в незнакомой местности, преследуемые грозным, жаждущим крови хищником...
Рейтинг
kinopoisk.ru: 4.478 (54)
imdb.com: 4.60 (477)
Качество: WEB-DLRip720(AVC)
Формат: MKV
Видео кодек: AVC
Аудио кодек: AC3
Видео: 3800 Кбит/сек, 1280*544 (2,35:1), в 23,976 кадра/сек, AVC
Аудио №1: Русский 128 Кбит/сек, 48,0 КГц, 16 бит, 2 канала, AC-3
Аудио №2: Английский 384 Кбит/сек, 48,0 КГц, 16 бит, 6 каналов, AC-3 Внимание! Присутствует ненормативная лексика!
Общее
Уникальный идентификатор : 193026892481810134531787429004178576157 (0x9137A09229C71E96ADC1EF52EE13531D)
Полное имя : H:\ТОРРЕНТЫ\Животное.mkv
Формат : Matroska
Версия формата : Version 4 / Version 2
Размер файла : 2,43 Гбайт
Продолжительность : 1 ч. 21 м.
Общий поток : 4256 Кбит/сек
Дата кодирования : UTC 2014-06-21 14:57:23
Программа кодирования : mkvmerge v6.1.0 ('Old Devil') built on Mar 4 2013 09:10:42
Библиотека кодирования : libebml v1.3.0 + libmatroska v1.4.0

Видео
Идентификатор : 1
Формат : AVC
Формат/Информация : Advanced Video Codec
Профиль формата : High@L4.1
Параметр CABAC формата : Да
Параметр ReFrames формата : 4 кадра
Идентификатор кодека : V_MPEG4/ISO/AVC
Продолжительность : 1 ч. 21 м.
Битрейт : 3800 Кбит/сек
Ширина : 1280 пикселей
Высота : 544 пикселя
Соотношение сторон : 2,35:1
Режим частоты кадров : Постоянный
Частота кадров : 23,976 кадра/сек
Цветовое пространство : YUV
Субдискретизация насыщенности : 4:2:0
Битовая глубина : 8 бит
Тип развёртки : Прогрессивная
Бит/(Пиксели*Кадры) : 0.228
Размер потока : 2,09 Гбайт (86%)
Библиотека кодирования : x264 core 142 r2431 ac76440
Настройки программы : cabac=1 / ref=4 / deblock=1:0:0 / analyse=0x3:0x113 / me=umh / subme=8 / psy=1 / psy_rd=1.00:0.00 / mixed_ref=1 / me_range=16 / chroma_me=1 / trellis=1 / 8x8dct=1 / cqm=0 / deadzone=21,11 / fast_pskip=1 / chroma_qp_offset=-2 / threads=12 / lookahead_threads=2 / sliced_threads=0 / nr=0 / decimate=1 / interlaced=0 / bluray_compat=0 / constrained_intra=0 / bframes=3 / b_pyramid=2 / b_adapt=2 / b_bias=0 / direct=3 / weightb=1 / open_gop=0 / weightp=2 / keyint=240 / keyint_min=24 / scenecut=40 / intra_refresh=0 / rc_lookahead=50 / rc=abr / mbtree=1 / bitrate=3800 / ratetol=1.0 / qcomp=0.60 / qpmin=0 / qpmax=69 / qpstep=4 / vbv_maxrate=62500 / vbv_bufsize=78125 / nal_hrd=none / filler=0 / ip_ratio=1.40 / aq=1:1.00
Язык : English
Default : Да
Forced : Нет
Основные цвета : BT.709
Характеристики трансфера : BT.709
Коэффициенты матрицы : BT.709

Аудио #1
Идентификатор : 2
Формат : AC-3
Формат/Информация : Audio Coding 3
Расширение режима : CM (complete main)
Параметр Endianness формата : Big
Идентификатор кодека : A_AC3
Продолжительность : 1 ч. 21 м.
Вид битрейта : Постоянный
Битрейт : 128 Кбит/сек
Каналы : 2 канала
Расположение каналов : Front: L R
Частота : 48,0 КГц
Битовая глубина : 16 бит
Метод сжатия : С потерями
Задержка видео : -83 мс.
Размер потока : 74,9 Мбайт (3%)
Язык : Russian
Default : Да
Forced : Нет

Аудио #2
Идентификатор : 3
Формат : AC-3
Формат/Информация : Audio Coding 3
Расширение режима : CM (complete main)
Параметр Endianness формата : Big
Идентификатор кодека : A_AC3
Продолжительность : 1 ч. 21 м.
Вид битрейта : Постоянный
Битрейт : 384 Кбит/сек
Каналы : 6 каналов
Расположение каналов : Front: L C R, Side: L R, LFE
Частота : 48,0 КГц
Битовая глубина : 16 бит
Метод сжатия : С потерями
Размер потока : 225 Мбайт (9%)
Язык : English
Default : Нет
Forced : Нет

Меню
00:00:00.000 : :1
00:03:43.140 : :2
00:09:14.179 : :3
00:14:20.151 : :4
00:21:00.134 : :5
00:24:35.182 : :6
00:30:50.140 : :7
00:34:54.175 : :8
00:41:43.126 : :9
00:45:16.172 : :10
00:50:06.128 : :11
00:57:18.143 : :12
01:02:47.138 : :13
01:08:24.142 : :14
01:12:42.149 : :15
01:19:05.199 : :16

скриншот   скриншот   скриншот   скриншот   скриншот   скриншот   скриншот   скриншот   скриншот   скриншот  

kino.freetor.icu



Скачать Животное через торрент https://pic.kartinco.top/new/img/2014-06/28/kr7b8q3eiris027ec7ip9a4dc.jpg Скачать, смотреть онлайн Животное бесплантно в хорошем качестве Описание:Группа друзей хотела просто весело провести выходные, а в итоге они оказались в незнакомой местности, преследуемые грозным, ... 10 10 9
Торрент: Зарегистрирован [2014-06-28 01:41] · скачан: 152 раз
Статус: T временная
Размер: 2.43 GB
Как cкачать? Как скачать Животное через торрент | UTorrent

% Раздел Тема Автор DL S | L
Научно-популярные фильмы [ 10.18 GB ] Удивительные животные / Animal / Сезон: 1 / Серии: 1-4 из 4 [2021 документальный WEB-DL 1080p] [MVO] killermax2013 Скачать
2 | 0
Фильмы 2019-2020 [DVDrip, WEB-DLRip, HDrip] (DUB, MVO) [ 1.42 GB ] Корпоративные животные / Corporate Animals [2019 BDRip] - Twi7ter Скачать
2 | 0
Фильмы [HD 720p, 1080p] (Хороший звук DUB, MVO) [ 6.61 GB ] Корпоративные животные / Corporate Animals [2019 BDRip 1080p] bober100 Скачать
1 | 0
Фильмы 2019-2020 [DVDrip, WEB-DLRip, HDrip] (DUB, MVO) [ 1.42 GB ] Корпоративные животные / Corporate Animals [2019 BDRip] bober100 Скачать
1 | 0
Фильмы (WEB-DL 720p, 1080p) [ 2.64 GB ] Корпоративные животные / Corporate Animals [2019 WEB-DL 720p] bober100 Скачать
1 | 0
Фильмы (WEB-DL 720p, 1080p) [ 3.89 GB ] Корпоративные животные / Corporate Animals [2019 WEB-DL 1080p] [AMAZON Version] bober100 Скачать
1 | 0
T Фильмы (мультфильмы) cо спонсором показа (Новинки AVI/MKV) [ 3.57 GB ] Животное среди нас / Animal Among Us [2019 WEB-DL 720p] MVO ["Синема УС"] bober100 Скачать
1 | 0

28-11-2019 20:33  

Отключить всю рекламу на сайте

28-06-2014 03:40 Животное Скачать торрент  

Оригинальный сюжет...Идиотыkino.freetor.icu



29-06-2014 07:44 Животное Скачать торрент  

VADDDIM писал(а):

Оригинальный сюжет...Идиоты

Америкосы, на всю голову ......нутыеkino.freetor.icu



    Дорогой пользователь! Огромная просьба, поблагодарите релизера, оцените раздачу и оставьте свои комментарий, если Вы скачали Животное через торрент бесплатно!
    Комментировать посты могут только пользователи прошедшие не сложную регистрацию
    Показать сообщения:    

    Животное через торрент
    Скачать бесплатно Животное
    Животное скачать торрент
    Животное смотреть онлайн
    Cкачать фильм Животное бесплатно
    Животное скачать торрент в хорошем качестве
    Животное смотреть онлайн бесплатно в хорошем качестве


    Вы не можете начинать темы
    Вы не можете отвечать на сообщения
    Вы не можете редактировать свои сообщения
    Вы не можете удалять свои сообщения
    Вы не можете голосовать в опросах
    Вы не можете прикреплять файлы к сообщениям
    Вы можете скачивать файлы