Всегда рабочее зеркало без VPN и Proxy просто перед .vidak.icu напиши любое слово или цифру, Пример http://x6ml.vidak.icu

MVO

Лицензия

1 сезон

1

1 сезон

iTunes

1 сезон

13

1 сезон

Deluxe

pack

Рекомендуем

Пиратка

30

ВАЖНО

RePack

MK11

RePack

jed

RePack

fifa19

RePack

RDR2

RePack

NEED FOR SPEED™ PAYBACK

Кинопоиск HD

6 сезон

 Острые козырьки 6 сезон

Все сериалы

все сериалы на PB.wtf

RePack

FAR CRY 5
  
Magnet ссылка

Рапунцель: Запутанная история / Tangled (Нэйтан Грено / Байрон Ховард) [2010 г., мультфильм, мюзикл, фэнтези, мелодрама, комедия, BDRip 720p, Дубляж, Лицензия] 60 fps kino.freetor.icu

Рапунцель: Запутанная история через торрент kino.freetor.icu

Размер: 8.68 GB | Добавлен: 7 лет 11 мес. назад | Торрент скачан:584 раза
Смотреть онлайн Рапунцель: Запутанная история | Скачать    Ребята, помогите собрать деньги на оплату серверов!!!

02-08-2014 16:54 Рапунцель: Запутанная история Скачать торрент  

Рапунцель: Запутанная история / Tangled Год выпуска: 2010
Страна: США
Жанр: мультфильм, мюзикл, фэнтези, мелодрама, комедия
Продолжительность: 01:40:57




Перевод: Дубляж, Лицензия + AVO А.Гаврилов + AVO Ю.Сербин + DVO Кубик в Кубе
Субтитры: Russian, English




Режиссер: Нэйтан Грено / Байрон Ховард









В ролях: Мэнди Мур, Закари Левай, Донна Мерфи, Рон Перлман, М. К. Гейни, Джеффри Тэмбор, Брэд Гэррет, Пол Ф. Томпкинс, Ричард Кил, Делани Роуз Стейн.




Описание: Обаятельный разбойник Флинн путешествует по жизни с легкостью, лишь потому, что он красив, болтлив и удачлив. И, казалось, фортуна всегда на его стороне, пока однажды он не выбирает высокую башню в густой чаще леса в качестве «спокойного» убежища. Флинн оказывается связанным по рукам и ногам юной красавицей по имени Рапунцель.

Если вы думаете, что самое интересное в ней — это 21 метр волшебных золотистых волос, то вы заблуждаетесь! Запертая в башне и отчаянно ищущая приключений, Рапунцель решает использовать Флинна в качестве билета в большой мир. Сначала комичное похищение, затем невинный шантаж — и вот наши герои на воле. Вместе с главными героями в авантюрное путешествие отправятся бравый конь-ищейка Максимус, ручной хамелеон и шайка сумасбродных разбойников.




Качество: BDRip 720p
Формат: MKV
Видео кодек: AVC
Аудио кодек: AC3
Видео: AVC, 1280x720 (16/9), 59.940 fps, 9 107 Kbps
Аудио 1: AC-3, 48.0 KHz, 6 ch, 640 Kbps, CBR (Дубляж)
Аудио 2: AC-3, 48.0 KHz, 6 ch, 640 Kbps, CBR (AVO А.Гаврилов)
Аудио 3: AC-3, 48.0 KHz, 6 ch, 640 Kbps, CBR (AVO Ю.Сербин)
Аудио 4: AC-3, 48.0 KHz, 6 ch, 640 Kbps, CBR (DVO Кубик в Кубе)
Аудио 5: AC-3, 48.0 KHz, 6 ch, 640 Kbps, CBR (English)




скриншот   скриншот   скриншот  

скриншот   скриншот  

скриншот  
General
Unique ID : 219838758288944102554038735582936121335 (0xA563679DDD19C5DE952DB539D73B3FF7)
Complete name : D:\Моя музыка\Rapuncel.Zaputannaja.istorija.(2010).BDRip.720p.[envy].[60fps].mkv
Format : Matroska
Format version : Version 2
File size : 8.68 GiB
Duration : 1h 40mn
Overall bit rate : 12.3 Mbps
Movie name : Рапунцель: Запутанная история.(2010).BDRip.720p.[envy].[60fps]
Encoded date : UTC 2014-02-14 11:24:32
Writing application : mkvmerge v5.8.0 ('No Sleep / Pillow') built on Sep 2 2012 15:37:04
Writing library : libebml v1.2.3 + libmatroska v1.3.0

Video
ID : 1
Format : AVC
Format/Info : Advanced Video Codec
Format profile : High@L4.1
Format settings, CABAC : Yes
Format settings, ReFrames : 9 frames
Codec ID : V_MPEG4/ISO/AVC
Duration : 1h 40mn
Bit rate : 9 107 Kbps
Width : 1 280 pixels
Height : 720 pixels
Display aspect ratio : 16:9
Frame rate mode : Constant
Frame rate : 59.880 fps
Original frame rate : 59.940 fps
Color space : YUV
Chroma subsampling : 4:2:0
Bit depth : 8 bits
Scan type : Progressive
Bits/(Pixel*Frame) : 0.165
Stream size : 6.25 GiB (72%)
Title : Рапунцель: Запутанная история.(2010).BDRip.720p.[envy].[60fps]
Writing library : x264 core 140 r2377 1ca7bb9
Encoding settings : cabac=1 / ref=9 / deblock=1:0:0 / analyse=0x3:0x133 / me=umh / subme=11 / psy=1 / psy_rd=1.00:0.00 / mixed_ref=1 / me_range=32 / chroma_me=1 / trellis=2 / 8x8dct=1 / cqm=0 / deadzone=21,11 / fast_pskip=0 / chroma_qp_offset=-2 / threads=12 / lookahead_threads=2 / sliced_threads=0 / nr=0 / decimate=1 / interlaced=0 / bluray_compat=0 / constrained_intra=0 / bframes=7 / b_pyramid=2 / b_adapt=2 / b_bias=0 / direct=3 / weightb=1 / open_gop=0 / weightp=2 / keyint=250 / keyint_min=25 / scenecut=40 / intra_refresh=0 / rc=2pass / mbtree=0 / bitrate=9107 / ratetol=2.0 / qcomp=0.60 / qpmin=0 / qpmax=69 / qpstep=4 / cplxblur=20.0 / qblur=0.5 / ip_ratio=1.40 / pb_ratio=1.30 / aq=1:0.90
Language : English
Default : Yes
Forced : No

Audio #1
ID : 2
Format : AC-3
Format/Info : Audio Coding 3
Mode extension : CM (complete main)
Format settings, Endianness : Big
Codec ID : A_AC3
Duration : 1h 40mn
Bit rate mode : Constant
Bit rate : 640 Kbps
Channel(s) : 6 channels
Channel positions : Front: L C R, Side: L R, LFE
Sampling rate : 48.0 KHz
Bit depth : 16 bits
Compression mode : Lossy
Stream size : 462 MiB (5%)
Title : Dub
Language : Russian
Default : Yes
Forced : No

Audio #2
ID : 3
Format : AC-3
Format/Info : Audio Coding 3
Mode extension : CM (complete main)
Format settings, Endianness : Big
Codec ID : A_AC3
Duration : 1h 40mn
Bit rate mode : Constant
Bit rate : 640 Kbps
Channel(s) : 6 channels
Channel positions : Front: L C R, Side: L R, LFE
Sampling rate : 48.0 KHz
Bit depth : 16 bits
Compression mode : Lossy
Stream size : 462 MiB (5%)
Title : Kubik v Kube
Language : Russian
Default : No
Forced : No

Audio #3
ID : 4
Format : AC-3
Format/Info : Audio Coding 3
Mode extension : CM (complete main)
Format settings, Endianness : Big
Codec ID : A_AC3
Duration : 1h 40mn
Bit rate mode : Constant
Bit rate : 640 Kbps
Channel(s) : 6 channels
Channel positions : Front: L C R, Side: L R, LFE
Sampling rate : 48.0 KHz
Bit depth : 16 bits
Compression mode : Lossy
Stream size : 462 MiB (5%)
Title : Gavrilov
Language : Russian
Default : No
Forced : No

Audio #4
ID : 5
Format : AC-3
Format/Info : Audio Coding 3
Mode extension : CM (complete main)
Format settings, Endianness : Big
Codec ID : A_AC3
Duration : 1h 40mn
Bit rate mode : Constant
Bit rate : 640 Kbps
Channel(s) : 6 channels
Channel positions : Front: L C R, Side: L R, LFE
Sampling rate : 48.0 KHz
Bit depth : 16 bits
Compression mode : Lossy
Stream size : 462 MiB (5%)
Title : Serbin
Language : Russian
Default : No
Forced : No

Audio #5
ID : 6
Format : AC-3
Format/Info : Audio Coding 3
Mode extension : CM (complete main)
Format settings, Endianness : Big
Codec ID : A_AC3
Duration : 1h 40mn
Bit rate mode : Constant
Bit rate : 640 Kbps
Channel(s) : 6 channels
Channel positions : Front: L C R, Side: L R, LFE
Sampling rate : 48.0 KHz
Bit depth : 16 bits
Compression mode : Lossy
Stream size : 462 MiB (5%)
Title : Eng
Language : English
Default : No
Forced : No

Text #1
ID : 7
Format : UTF-8
Codec ID : S_TEXT/UTF8
Codec ID/Info : UTF-8 Plain Text
Title : rus full
Language : Russian
Default : No
Forced : No

Text #2
ID : 8
Format : UTF-8
Codec ID : S_TEXT/UTF8
Codec ID/Info : UTF-8 Plain Text
Title : eng full
Language : English
Default : No
Forced : No

Menu
00:00:00.000 : en:00:00:00.000
00:08:21.084 : en:00:08:21.084
00:15:43.401 : en:00:15:43.401
00:24:41.355 : en:00:24:41.355
00:34:42.288 : en:00:34:42.288
00:42:31.007 : en:00:42:31.007
00:50:26.065 : en:00:50:26.065
00:59:22.058 : en:00:59:22.058
01:10:35.773 : en:01:10:35.773
01:19:23.550 : en:01:19:23.550
01:25:22.159 : en:01:25:22.159
01:31:21.017 : en:01:31:21.017
kino.freetor.icu



Скачать Рапунцель: Запутанная история через торрент http://i67.fastpic.ru/big/2014/0802/7b/573686e50bd02b9e3870a8f72001cb7b.png Скачать, смотреть онлайн Рапунцель: Запутанная история бесплантно в хорошем качестве Описание: Обаятельный разбойник Флинн путешествует по жизни с легкостью, лишь потому, что он красив, болтлив и удачлив. И, казалось, ... 10 10 21
Info! Золотая раздача, скачанное не засчитывается.
Торрент: Зарегистрирован [2014-08-02 16:54] · скачан: 584 раз
Статус: √ проверено
Размер: 8.68 GB
Как cкачать? Как скачать Рапунцель: Запутанная история через торрент | UTorrent

% Раздел Тема Автор DL S | L
Мультфильмы (48-60 fps) [ 4.02 GB ] Рапунцель: Запутанная история / Tangled [2010 Мультфильм мюзикл BDRip 720p / 60 FPS BD CEE] от R.G. HD-Films slaventi-69 Скачать
1 | 0

28-11-2019 20:33  

Отключить всю рекламу на сайте

    Дорогой пользователь! Огромная просьба, поблагодарите релизера, оцените раздачу и оставьте свои комментарий, если Вы скачали Рапунцель: Запутанная история через торрент бесплатно!
    Комментировать посты могут только пользователи прошедшие не сложную регистрацию
    Показать сообщения:    

    Рапунцель: Запутанная история через торрент
    Скачать бесплатно Рапунцель: Запутанная история
    Рапунцель: Запутанная история скачать торрент
    Рапунцель: Запутанная история смотреть онлайн
    Cкачать фильм Рапунцель: Запутанная история бесплатно
    Рапунцель: Запутанная история скачать торрент в хорошем качестве
    Рапунцель: Запутанная история смотреть онлайн бесплатно в хорошем качестве


    Вы не можете начинать темы
    Вы не можете отвечать на сообщения
    Вы не можете редактировать свои сообщения
    Вы не можете удалять свои сообщения
    Вы не можете голосовать в опросах
    Вы не можете прикреплять файлы к сообщениям
    Вы можете скачивать файлы