Присоединяйтесь к нам в Telegram!, здесь всегда актуальный адрес сайта, оперативная поддержка и многое другое!!

>

5.9

iTunes

7.4

iTunes

9.4

1 сезон

1

7.4

2 сезон

7.2

iTunes

7.3

1 сезон

13

6.1

iTunes

8.3

Пиратка

30

ULTIMATE

pack

9.9

Лицензия

ВАЖНО

ИГРА 18+

pack

7.3

RePack

MK11

7.7

RePack

jed

7.8

RePack

fifa19

8.5

RePack

RDR2

RePack

NEED FOR SPEED™ PAYBACK

5 сезон

9 сезон

Бесстыжие 9 сезон

Все сериалы

все сериалы на PB.wtf

RePack

FAR CRY 5

Anonymous, доброй ночи, мы катастрофически не успеваем собрать деньги на оплату серверов, помогите нам пожалуйста 5,10,15р., для нас важна любая помощь . В качестве благодарности мы отключим Вам всю рекламу на сайте (укажите свой ник в строку Ваше имя)!

×
  
Magnet ссылка

Хороший человек / A Good Man (Киони Ваксман) [2014 г., Боевик,WEB-DL 1080p, Любительский одноголосый] kino.freetor.icu

Хороший человек через торрент kino.freetor.icu

Размер: 4.25 GB | Добавлен: 7 лет 3 мес. назад | Торрент скачан:40 раз
Смотреть онлайн Хороший человек | Скачать    Ребята, помогите собрать деньги на оплату серверов!!!

26-08-2014 09:15 Хороший человек Скачать торрент  

Хороший человек / A Good Man

Год выпуска: 2014
Страна: США
Жанр: боевик
Продолжительность: 01:43:24
Перевод: Любительский (одноголосый закадровый) Lord32x

Режиссер: Киони Ваксман
Сценарий: Киони Ваксман
Продюсер: Филлип Б. Голдфайн, Бинь Дань, Бенжамин Сакс, ...
Оператор: Нэйтан Уилсон
Композитор: Брайан Джексон Харрис, Джастин Рейнес, Майкл Уикстром
Художник: Дан Тоадер, Оана Драгичи
Монтаж: Тревор Мирош

В ролях: Стивен Сигал / Steven Seagal (Alexander), Виктор Уэбстер / Victor Webster , Ци Ма / Tzi Ma , Рон Балики / Ron Balicki (Polanski), Юлия Вердес / Iulia Verdes (Lena), Massimo Dobrovic (Roberto), Элиас Феркин / Elias Ferkin (Li Wey)


Описание: Александр — идеальный солдат, но во время миссии в Ираке, на его руках умирает маленькая девочка, после чего он решил отойти от дел. Сэм Хуан — силовик, то ли связанный с Триадами, то ли воюющий против них, отправил, хорошо заплатив, безопасным путем свою маленькую сестру Миа в США. Мистер Чэн гнусным образом вешает на Сэма убийство, которое он совершил, а также похищает его сестру и передает бандитам. Александр решается помочь Сэму вернуть сестру и покончить с Триадой. Число жертв растет, Александр возвращается в то, что умеет делать лучше всего — это убивать.

Бюджет: $7 000 000
Премьера (мир): 19 августа 2014
Рейтинг MPAA: Лицам до 17 лет обязательно присутствие взрослого


Качество: WEB-DL 1080p
Формат: MKV
Видео кодек: AVC
Аудио кодек: AC3
Видео: 1912x1072 (16:9), 23.976 fps, AVC, 5 006 Kbps
Аудио: Аудио #1: AC3, 384 Kbps, 48.0 KHz, 6 ch RUS
Аудио #2: AC3, 384 Kbps, 48.0 KHz, 6 ch ENG


СЭМПЛ

Код:

General
Complete name                    : AGoodMan.2014.1080p.WEB-DL.mkv
Format                           : Matroska
File size                        : 4.25 GiB
Duration                         : 1h 43mn
Overall bit rate                 : 5 891 Kbps
Encoded date                     : UTC 2014-08-25 12:50:44
Writing application              : mkvmerge v7.0.0 ('Where We Going') 32bit built on Jun  9 2014 15:08:34
Writing library                  : libebml v1.3.0 + libmatroska v1.4.1

Video
ID                               : 1
Format                           : AVC
Format/Info                      : Advanced Video Codec
Format profile                   : High@L4.0
Format settings, CABAC           : Yes
Format settings, ReFrames        : 4 frames
Muxing mode                      : Container profile=Unknown@4.0
Codec ID                         : V_MPEG4/ISO/AVC
Duration                         : 1h 43mn
Bit rate                         : 5 006 Kbps
Width                            : 1 912 pixels
Height                           : 1 072 pixels
Display aspect ratio             : 16:9
Frame rate                       : 23.976 fps
Color space                      : YUV
Chroma subsampling               : 4:2:0
Bit depth                        : 8 bits
Scan type                        : Progressive
Bits/(Pixel*Frame)               : 0.102
Stream size                      : 3.62 GiB (85%)
Color primaries                  : BT.709-5, BT.1361, IEC 61966-2-4, SMPTE RP177
Transfer characteristics         : BT.709-5, BT.1361
Matrix coefficients              : BT.709-5, BT.1361, IEC 61966-2-4 709, SMPTE RP177

Audio #1
ID                               : 2
Format                           : AC-3
Format/Info                      : Audio Coding 3
Mode extension                   : CM (complete main)
Codec ID                         : A_AC3
Duration                         : 1h 43mn
Bit rate mode                    : Constant
Bit rate                         : 384 Kbps
Channel(s)                       : 6 channels
Channel positions                : Front: L C R, Side: L R, LFE
Sampling rate                    : 48.0 KHz
Bit depth                        : 16 bits
Stream size                      : 284 MiB (7%)

Audio #2
ID                               : 3
Format                           : AC-3
Format/Info                      : Audio Coding 3
Mode extension                   : CM (complete main)
Codec ID                         : A_AC3
Duration                         : 1h 43mn
Bit rate mode                    : Constant
Bit rate                         : 384 Kbps
Channel(s)                       : 6 channels
Channel positions                : Front: L C R, Side: L R, LFE
Sampling rate                    : 48.0 KHz
Bit depth                        : 16 bits
Stream size                      : 284 MiB (7%)

Menu
00:00:00.000                     : en:Chapter 1
00:08:37.000                     : en:Chapter 2
00:16:02.000                     : en:Chapter 3
00:24:04.000                     : en:Chapter 4
00:32:04.000                     : en:Chapter 5
00:39:49.000                     : en:Chapter 6
00:48:01.000                     : en:Chapter 7
00:57:04.000                     : en:Chapter 8
01:04:02.000                     : en:Chapter 9
01:12:15.000                     : en:Chapter 10
01:25:00.000                     : en:Chapter 11
01:41:46.000                     : en:Chapter 12

Трейлер
kino.freetor.icu



Скачать Хороший человек через торрент http://i63.fastpic.ru/big/2014/0826/41/9da88ae9e75daeb5ffdd74e136cd2341.jpg Скачать, смотреть онлайн Хороший человек бесплантно в хорошем качестве Описание: Александр — идеальный солдат, но во время миссии в Ираке, на его руках умирает маленькая девочка, после чего он решил отойти от ... 8.2 10 5
Торрент: Зарегистрирован [2014-08-26 14:10] · скачан: 40 раз
Статус: T временная
Размер: 4.25 GB
Как cкачать? Как скачать Хороший человек через торрент | UTorrent

% Раздел Тема Автор DL S | L
T Фильмы 2014 (Звук TS, Cam, VO, DVO) [ 1.4 GB ] Хороший человек / A Good Man [2014 DVDRip Любительский одноголосый] Pavlin Скачать
1 | 0


Последний раз редактировалось: Teagun (2014-08-31 10:57), всего редактировалось 12 раз(а)

28-11-2019 20:33  

Отключить всю рекламу на сайте

26-08-2014 09:37 Хороший человек Скачать торрент  

Teagun,
Добавьте пожалуйста Сэмпл
http://pb.wtf/topic/89054/
13.3 Рекомендуется заливать сэмпл на:
rghost.ru
f-bit.ru
sendfile.su
Запрещено заливать сэмплы на платные файлообенники, также запрещено заливать сэмпл исключительно на depositfile, rapidshare и letitbit!
Скриншоты не соответствуют заявленному разрешению Перезалейте
http://pb.wtf/topic/30/
http://pb.wtf/topic/122539/
ссылка
Администрация ресурса разрешает заливать скрины, постеры, картинки с этих хостингов:
fastpic
lostpic
firepic
directupload.
Запрещено заливать скриншоты на фотохостинги с оплатой за клики!


http://pb.wtf/topic/58128/

Цитата:

Качество:
Формат:
Видео кодек:
Аудио кодек:

kino.freetor.icu





Последний раз редактировалось: Ворон (2014-08-26 11:37), всего редактировалось 1 раз

26-08-2014 14:30 Хороший человек Скачать торрент  

Изменен торрент-файл, Теперь audio RU по "умолчанию" просьба перехэшировать раздачу.
Новый файл имеет название AGoodMan.2014.1080p.WEB-DL (RU) изменений (кроме "флагов" дорожки) никаких.kino.freetor.icu



    Дорогой пользователь! Огромная просьба, поблагодарите релизера, оцените раздачу и оставьте свои комментарий, если Вы скачали Хороший человек через торрент бесплатно!
    Комментировать посты могут только пользователи прошедшие не сложную регистрацию
    Показать сообщения:    

    Хороший человек через торрент
    Скачать бесплатно Хороший человек
    Хороший человек скачать торрент
    Хороший человек смотреть онлайн
    Cкачать фильм Хороший человек бесплатно
    Хороший человек скачать торрент в хорошем качестве
    Хороший человек смотреть онлайн бесплатно в хорошем качестве


    Вы не можете начинать темы
    Вы не можете отвечать на сообщения
    Вы не можете редактировать свои сообщения
    Вы не можете удалять свои сообщения
    Вы не можете голосовать в опросах
    Вы не можете прикреплять файлы к сообщениям
    Вы можете скачивать файлы