Anonymous, доброе утро, присоединяйтесь к нам в Telegram!, здесь всегда актуальный адрес сайта, оперативная поддержка и многое другое!

>

5.5

iTunes

7.4

iTunes

7.9

iTunes

1

7.7

1 сезон

6.8

iTunes

7.3

1 сезон

13

6.7

1 сезон

8.3

RePack

30

ULTIMATE

pack

9.9

Лицензия

ВАЖНО

ИГРА 18+

pack

7.3

RePack

MK11

7.7

RePack

jed

7.8

RePack

fifa19

8.5

RePack

RDR2

RePack

NEED FOR SPEED™ PAYBACK

4 сезон

9 сезон

Бесстыжие 9 сезон

Все сериалы

все сериалы на PB.wtf

RePack

FAR CRY 5

Anonymous, доброе утро, мы катастрофически не успеваем собрать деньги на оплату серверов, помогите нам пожалуйста 5,10,15р., для нас важна любая помощь . В качестве благодарности мы отключим Вам всю рекламу на сайте (укажите свой ник в строку Ваше имя)!

×
  
Magnet ссылка

Стрела / Arrow / Сезон: 3 / Серии 1-23 из 23 (Джон Беринг / John Behring, Гай Норман Би / Guy Norman Bee, Ник Копус / Nick Copus) [2014, США, фантастика, боевик, драма, WEB-DLRip] MVO [NewStudio] kino.freetor.icu

Стрела через торрент kino.freetor.icu

Размер: 12.35 GB | Добавлен: 6 лет 5 мес. назад | Торрент скачан:248 раз
Смотреть онлайн Стрела | Скачать    Ребята, помогите собрать деньги на оплату серверов!!!

10-10-2014 03:17 Стрела Скачать торрент  

Стрела / Arrow
«Судьба оставляет свой отпечаток»


  • Год выпуска: 2014
  • Страна: США
  • Жанр: фантастика, боевик, драма, криминал, детектив, приключения
  • Продолжительность: 00:42:48 (Серия)
  • Перевод: Профессиональный многоголосый закадровый) [NewStudio]

  • Режиссер: Джон Беринг / John Behring, Гай Норман Би / Guy Norman Bee, Ник Копус / Nick Copus
  • В ролях:

    Стивен Амелл (Oliver Queen), Кэти Кэссиди (Laurel Lance), Дэвид Рэмси (John Diggle), Уилла Холланд (Thea Queen), Эмили Бетт Рикардс (Felicity Smoak), Пол Блекторн (Quentin Lance), Сюзанна Томпсон (Moira Queen), Ману Беннетт (Slade Wilson), Колтон Хэйнс (Roy Harper), Кейти Лотц (Sara Lance), Колин Доннелл (Tommy Merlyn), Джон Барроумен (Malcolm Merlyn)

  • Описание:
    После кораблекрушения плейбой миллиардер Оливер Куин пропадает и считается погибшим в течение пяти лет, после чего его обнаруживают живым на затерянном острове в Тихом океане. Когда он возвращается домой в Старлинг-Сити, его преданная мать Мойра, столь любимая сестра Теа и лучший друг Томми приветствуют его дома, но они видят, что Оливер изменился после испытаний на острове. Хотя Оливер скрывает правду о человеке, которым он стал...
  • Рейтинг:



  • Качество: WEB-DLRip
  • Формат: :AVI
  • Видео кодек: XviD
  • Аудио кодек: MP3
  • Видео: 720x400 (16:9), 1525 kbps, 23,976 fps, 0,221 bpp
  • Аудио №1: Русский 2.0 / 48 kHz / 128 kbps
  • Аудио №2: Английский 2.0 / 48 kHz / 128 kbps
  • Релиз от: GEKADOL

    Код:

    Внимание! Раздача ведётся путём добавления новых серий; при каждом добавлении создаётся новый торрент. Чтобы начать докачку новой серии, пользователям необходимо сделать следующее:
    (1) остановить скачивание,
    (2) удалить старый торрент у себя из клиента (старые серии удалять не надо),
    (3) скачать новый торрент и запустить его у себя в клиенте вместо старого, при этом указать клиенту путь в старую папку куда и должно происходить скачивание новых серий.
    Ваш клиент при этом должен произвести хеширование (проверку) старой папки (если не производит сам - помогите ему сделать это), и будет докачивать только те серии которых у вас ещё нет. Старые серии при этом не удаляются, а продолжают раздаваться!
    Eсли вы уже удалили старые серии, то предотвратить повторную закачку старых серий можно, отжав галочку в соответсвующих местах при запуске нового торрента. По возможности, желательно не удалять старые серии как можно дольше чтобы релизёр не столько продолжал раздавать старые серии, а смог сконцентрироваться на новых.


    Код:

    Общее
    Полное имя                               : D:\Фильмы\Arrow (s03) NS\Arrow..s03e01.WEBDLRip.NewStudio.TV.avi
    Формат                                   : AVI
    Формат/Информация                        : Audio Video Interleave
    Размер файла                             : 550 Мбайт
    Продолжительность                        : 42 м.
    Общий поток                              : 1796 Кбит/сек
    Программа кодирования                    : VirtualDubMod 1.5.10.2 (build 2540/release)
    Библиотека кодирования                   : VirtualDubMod build 2540/release

    Видео
    Идентификатор                            : 0
    Формат                                   : MPEG-4 Visual
    Профиль формата                          : Advanced Simple@L5
    Параметр BVOP формата                    : 2
    Параметр QPel формата                    : Нет
    Параметр GMC формата                     : Без точки перехода
    Параметр матрицы формата                 : Default (MPEG)
    Идентификатор кодека                     : XVID
    Идентификатор кодека/Подсказка           : XviD
    Продолжительность                        : 42 м.
    Битрейт                                  : 1526 Кбит/сек
    Ширина                                   : 720 пикселей
    Высота                                   : 400 пикселей
    Соотношение сторон                       : 16:9
    Частота кадров                           : 23,976 кадра/сек
    Цветовое пространство                    : YUV
    Субдискретизация насыщенности            : 4:2:0
    Битовая глубина                          : 8 бит
    Тип развёртки                            : Прогрессивная
    Метод сжатия                             : С потерями
    Бит/(Пиксели*Кадры)                      : 0.221
    Размер потока                            : 467 Мбайт (85%)
    Библиотека кодирования                   : XviD 64

    Аудио #1
    Идентификатор                            : 1
    Формат                                   : MPEG Audio
    Версия формата                           : Version 1
    Профиль формата                          : Layer 3
    Режим                                    : Joint stereo
    Расширение режима                        : MS Stereo
    Идентификатор кодека                     : 55
    Идентификатор кодека/Подсказка           : MP3
    Продолжительность                        : 42 м.
    Вид битрейта                             : Постоянный
    Битрейт                                  : 128 Кбит/сек
    Каналы                                   : 2 канала
    Частота                                  : 48,0 КГц
    Метод сжатия                             : С потерями
    Размер потока                            : 39,2 Мбайт (7%)
    Выравнивание                             : Соединение по промежуткам
    Продолжительность промежутка             : 42  мс. (1,00 видеокадр)
    Время предзагрузки промежутка            : 504  мс.

    Аудио #2
    Идентификатор                            : 2
    Формат                                   : MPEG Audio
    Версия формата                           : Version 1
    Профиль формата                          : Layer 3
    Режим                                    : Joint stereo
    Идентификатор кодека                     : 55
    Идентификатор кодека/Подсказка           : MP3
    Продолжительность                        : 42 м.
    Вид битрейта                             : Постоянный
    Битрейт                                  : 128 Кбит/сек
    Каналы                                   : 2 канала
    Частота                                  : 48,0 КГц
    Метод сжатия                             : С потерями
    Размер потока                            : 39,2 Мбайт (7%)
    Выравнивание                             : Соединение по промежуткам
    Продолжительность промежутка             : 42  мс. (1,00 видеокадр)
    Время предзагрузки промежутка            : 504  мс.
    Библиотека кодирования                   : LAME3.99r
    Настройки программы                      : -m j -V 4 -q 2 -lowpass 17 -b 128


    Скриншоты:
    скриншот   скриншот   скриншот   скриншот   скриншот  
    скриншот  

    Раздача ведётся путём добавления новых серий. Добавлена 23 серия (15.05.2015).Просьба перекачать торрент файл.

    kino.freetor.icu



  • Скачать Стрела через торрент http://i64.fastpic.ru/big/2014/1010/0f/b6cabaee95c93ffae9c056a66939ef0f.jpeg Скачать, смотреть онлайн Стрела бесплантно в хорошем качестве Описание: После кораблекрушения плейбой миллиардер Оливер Куин пропадает и считается погибшим в течение пяти лет, после чего его ... 9.8 10 41
    Info! Золотая раздача, скачанное не засчитывается.
    Торрент: Зарегистрирован [2015-05-15 01:39] · скачан: 248 раз
    Статус: √ проверено
    Размер: 12.35 GB
    Как cкачать? Как скачать Стрела через торрент | UTorrent

    % Раздел Тема Автор DL S | L
    Стрела [ 11.93 GB ] Стрела / Arrow / Сезон: 3 / Серии 1-23 из 23 [2014 WEB-DLRip] MVO - LostFilm Anonymous Скачать
    1 | 0
    Стрела [ 32.85 GB ] Стрела / Arrow / Сезон: 3 / Серии 1-23 из 23 [2014 WEB-DL720p] MVO [NewStudio] GEKADOL Скачать
    1 | 0
    Стрела [ 9.69 GB ] Стрела / Arrow / Сезон: 3 / Серии 1-21 из 23 [2014 HDTVRip] MVO - Kerob Anonymous Скачать
    1 | 0

    28-11-2019 20:33  

    Отключить всю рекламу на сайте

      Дорогой пользователь! Огромная просьба, поблагодарите релизера, оцените раздачу и оставьте свои комментарий, если Вы скачали Стрела через торрент бесплатно!
      Комментировать посты могут только пользователи прошедшие не сложную регистрацию
      Показать сообщения:    

      Стрела через торрент
      Скачать бесплатно Стрела
      Стрела скачать торрент
      Стрела смотреть онлайн
      Cкачать фильм Стрела бесплатно
      Стрела скачать торрент в хорошем качестве
      Стрела смотреть онлайн бесплатно в хорошем качестве


      Вы не можете начинать темы
      Вы не можете отвечать на сообщения
      Вы не можете редактировать свои сообщения
      Вы не можете удалять свои сообщения
      Вы не можете голосовать в опросах
      Вы не можете прикреплять файлы к сообщениям
      Вы можете скачивать файлы