Anonymous, добрый день, присоединяйтесь к нам в Telegram!, здесь всегда актуальный адрес сайта, оперативная поддержка и многое другое!

>

5.6

iTunes

7.4

iTunes

7.9

MVO

1

7.7

1 сезон

6.8

iTunes

7.3

1 сезон

13

6.7

1 сезон

8.3

RePack

30

ULTIMATE

pack

9.9

Лицензия

ВАЖНО

ИГРА 18+

pack

7.3

RePack

MK11

7.7

RePack

jed

7.8

RePack

fifa19

8.5

RePack

RDR2

RePack

NEED FOR SPEED™ PAYBACK

4 сезон

9 сезон

Бесстыжие 9 сезон

Все сериалы

все сериалы на PB.wtf

RePack

FAR CRY 5

Anonymous, добрый день, мы катастрофически не успеваем собрать деньги на оплату серверов, помогите нам пожалуйста 5,10,15р., для нас важна любая помощь . В качестве благодарности мы отключим Вам всю рекламу на сайте (укажите свой ник в строку Ваше имя)!

×
  
Magnet ссылка

Живущие свободными / Living Free (Джек Коуффер / Jack Couffer) [1972, Великобритания, драма, приключения, семейный,DVDRip ,Дубляж kino.freetor.icu

Живущие свободными через торрент kino.freetor.icu

Размер: 1.46 GB | Добавлен: 6 лет 11 мес. назад | Торрент скачан:4 раза
Смотреть онлайн Живущие свободными | Скачать    Ребята, помогите собрать деньги на оплату серверов!!!

29-10-2014 16:40 Живущие свободными Скачать торрент  

Живущие свободными / Living Free

Год выпуска: 1972
Страна: Великобритания
Жанр: драма, приключения, семейный

Продолжительность: 01:28:07
Перевод: Дубляж
Субтитры: Нет
Режиссер: Джек Коуффер / Jack Couffer
В ролях: Найджел Девенпорт (George Adamson), Сьюзен Хэмпшир (Joy Adamson), Джефри Кин (Kendall), Питер Лукойе (Nuru), Shane De Louvre (Makedde), Роберт Бомонт (Billy Collins), Нобби Ноубл (Bank Manager), Аллаудин Куреши (Bank Clerk), Чарльз Хэйес (Herbert Baker), Джин Хэйес (Mrs. Herbert Baker), Эльза (играет саму себя), Jespah (играет самого себя)
Описание:
Львица Эльза умирает, оставив своим приемным родителям Адамсонам троих львят. Джордж и Джой начинают их воспитывать, но даже не подозревают, с какими проблемами скоро придется столкнуться им и их приемышам.
Рейтинг
kinopoisk.ru: 7.524 (47)
imdb.com: 6.00 (354)
MPAA: G - Нет возрастных ограничений
Качество: DVDRip
Формат: AVI
Видео кодек: XviD
Аудио кодек:AC3
Видео: XviD, 720x384 (1.875), 1777 kbps, 25 fps, 0,257 bpp
Аудио №1: AC3 / 2.0 / 48 kHz / 192 kbps / 16 bit Дубляж Русский
Аудио №2: AC3 / 2.0 / 48 kHz / 192 kbps / 16 bit Оригинал
Аудио №3: AC3 / 2.0 / 48 kHz / 192 kbps / 16 bit Немецкий

Общее
Полное имя : D:\torrent\Zhivushhie.svobodnymi.1972.XviD.DVDRip\Zhivushhie.svobodnymi.1972.XviD.DVDRip.avi
Формат : AVI
Формат/Информация : Audio Video Interleave
Размер файла : 1,46 Гбайт
Продолжительность : 1 ч. 28 м.
Общий поток : 2373 Кбит/сек
Название фильма : Живущие свободными / Living Free / (1972)
Программа кодирования : VirtualDubModRus 1.5.10.2 (build 2540/release)
Примечание : www.fenixclub.com

Видео
Идентификатор : 0
Формат : MPEG-4 Visual
Профиль формата : Advanced Simple@L5
Параметр BVOP формата : 2
Параметр QPel формата : Нет
Параметр GMC формата : Без точки перехода
Параметр матрицы формата : Default (MPEG)
Идентификатор кодека : XVID
Идентификатор кодека/Подсказка : XviD
Продолжительность : 1 ч. 28 м.
Битрейт : 1777 Кбит/сек
Ширина : 720 пикселей
Высота : 384 пикселя
Соотношение сторон : 1,85:1
Частота кадров : 25,000 кадров/сек
Цветовое пространство : YUV
Субдискретизация насыщенности : 4:2:0
Битовая глубина : 8 бит
Тип развёртки : Прогрессивная
Метод сжатия : С потерями
Бит/(Пиксели*Кадры) : 0.257
Размер потока : 1,09 Гбайт (75%)
Библиотека кодирования : XviD 63

Аудио #1
Идентификатор : 1
Формат : AC-3
Формат/Информация : Audio Coding 3
Расширение режима : CM (complete main)
Параметр Endianness формата : Big
Идентификатор кодека : 2000
Продолжительность : 1 ч. 28 м.
Вид битрейта : Постоянный
Битрейт : 192 Кбит/сек
Каналы : 2 канала
Расположение каналов : Front: L R
Частота : 48,0 КГц
Битовая глубина : 16 бит
Метод сжатия : С потерями
Размер потока : 121 Мбайт (8%)
Выравнивание : Разделение по промежуткам
Продолжительность промежутка : 40 мс. (1,00 видеокадр)
Время предзагрузки промежутка : 500 мс.

Аудио #2
Идентификатор : 2
Формат : AC-3
Формат/Информация : Audio Coding 3
Расширение режима : CM (complete main)
Параметр Endianness формата : Big
Идентификатор кодека : 2000
Продолжительность : 1 ч. 28 м.
Вид битрейта : Постоянный
Битрейт : 192 Кбит/сек
Каналы : 2 канала
Расположение каналов : Front: L R
Частота : 48,0 КГц
Битовая глубина : 16 бит
Метод сжатия : С потерями
Размер потока : 121 Мбайт (8%)
Выравнивание : Разделение по промежуткам
Продолжительность промежутка : 40 мс. (1,00 видеокадр)
Время предзагрузки промежутка : 500 мс.

Аудио #3
Идентификатор : 3
Формат : AC-3
Формат/Информация : Audio Coding 3
Расширение режима : CM (complete main)
Параметр Endianness формата : Big
Идентификатор кодека : 2000
Продолжительность : 1 ч. 28 м.
Вид битрейта : Постоянный
Битрейт : 192 Кбит/сек
Каналы : 2 канала
Расположение каналов : Front: L R
Частота : 48,0 КГц
Битовая глубина : 16 бит
Метод сжатия : С потерями
Размер потока : 121 Мбайт (8%)
Выравнивание : Разделение по промежуткам
Продолжительность промежутка : 40 мс. (1,00 видеокадр)
Время предзагрузки промежутка : 500 мс.



kino.freetor.icu



Скачать Живущие свободными через торрент http://i6.imageban.ru/out/2014/10/29/752cf5aa39b5ccdb745c32cb8a39fe54.jpg Скачать, смотреть онлайн Живущие свободными бесплантно в хорошем качестве Описание: Львица Эльза умирает, оставив своим приемным родителям Адамсонам троих львят. Джордж и Джой начинают их воспитывать, но даже не ... 5 10 1
Торрент: Зарегистрирован [2014-10-29 16:40] · скачан: 4 раз
Статус: √ проверено
Размер: 1.46 GB
Как cкачать? Как скачать Живущие свободными через торрент | UTorrent



Последний раз редактировалось: jump88 (2014-10-29 17:51), всего редактировалось 1 раз

28-11-2019 20:33  

Отключить всю рекламу на сайте

29-10-2014 17:00 Живущие свободными Скачать торрент  

jump88 писал(а):

Аудио №1: AC3 / 2.0 / 48 kHz / 192 kbps / 16 bit
Аудио №2: AC3 / 2.0 / 48 kHz / 192 kbps / 16 bit
Аудио №3: AC3 / 2.0 / 48 kHz / 192 kbps / 16 bit

подпишите каждую дорожку.

в заголовке у вас

Цитата:

BDRip 720p

а в самой раздаче

Цитата:

Качество: DVDRip

Об исправлении сообщите в лс со ссылкой на раздачу.kino.freetor.icu



    Дорогой пользователь! Огромная просьба, поблагодарите релизера, оцените раздачу и оставьте свои комментарий, если Вы скачали Живущие свободными через торрент бесплатно!
    Комментировать посты могут только пользователи прошедшие не сложную регистрацию
    Показать сообщения:    

    Живущие свободными через торрент
    Скачать бесплатно Живущие свободными
    Живущие свободными скачать торрент
    Живущие свободными смотреть онлайн
    Cкачать фильм Живущие свободными бесплатно
    Живущие свободными скачать торрент в хорошем качестве
    Живущие свободными смотреть онлайн бесплатно в хорошем качестве


    Вы не можете начинать темы
    Вы не можете отвечать на сообщения
    Вы не можете редактировать свои сообщения
    Вы не можете удалять свои сообщения
    Вы не можете голосовать в опросах
    Вы не можете прикреплять файлы к сообщениям
    Вы можете скачивать файлы