Anonymous, доброй ночи, присоединяйтесь к нам в Telegram!, здесь всегда актуальный адрес сайта, оперативная поддержка и многое другое!

>

5.6

iTunes

7.4

iTunes

5.7

MVO

1

7.7

1 сезон

6.8

iTunes

7.3

1 сезон

13

6.7

1 сезон

8.3

RePack

30

ULTIMATE

pack

9.9

Лицензия

ВАЖНО

ИГРА 18+

pack

7.3

RePack

MK11

7.7

RePack

jed

7.8

RePack

fifa19

8.5

RePack

RDR2

RePack

NEED FOR SPEED™ PAYBACK

4 сезон

9 сезон

Бесстыжие 9 сезон

Все сериалы

все сериалы на PB.wtf

RePack

FAR CRY 5

Anonymous, доброй ночи, мы катастрофически не успеваем собрать деньги на оплату серверов, помогите нам пожалуйста 5,10,15р., для нас важна любая помощь . В качестве благодарности мы отключим Вам всю рекламу на сайте (укажите свой ник в строку Ваше имя)!

×
  
Magnet ссылка

Стрела / Arrow / Сезон: 3 / Серии 1-21 из 23 (Джон Беринг / John Behring) [2014, США, фантастика, боевик, драма, HDTVRip] MVO - Kerob kino.freetor.icu

Стрела через торрент kino.freetor.icu

Размер: 9.69 GB | Добавлен: 6 лет 5 мес. назад | Торрент скачан:17 раз
Смотреть онлайн Стрела | Скачать    Ребята, помогите собрать деньги на оплату серверов!!!

20-11-2014 20:36 Стрела Скачать торрент  



✧ СТРЕЛА ✧
Информация о фильме:

✦ Название: Стрела

✦ Оригинальное название: Arrow

✦ Год выхода: 2014

✦ Жанр: фантастика, боевик, драма, криминал, детектив, приключения

✦ Режиссер: Гай Норман Би / Guy Norman Bee, Джон Беринг / John Behring

✦ В ролях: Стивен Амелл, Кэти Кэссиди, Колин Доннелл, Дэвид Рэмси, Уилла Холланд, Сюзанна Томпсон, Пол Блекторн, Эмили Бетт Рикардс, Колин Сэлмон, Джон Барроумен


Описание фильма:

После пяти лет, проведенных на одном из необитаемых островов юго-восточной Азии, молодой и дерзкий миллиардер Оливер Куин возвращается домой другим человеком. Все это время все считали его погибшим в результате кораблекрушения. Однако, он оказался единственным из членов экипажа затонувшего судна, кому не просто удалось выжить... Внешние или внутренние обстоятельства превратили его в совершенно другого человека, правда, Оливер отчего-то не спешит предъявить себя в новом качестве общественности.

✦ Страна: США

✦ Продолжительность: ~ 00:43:00

✦ Перевод: любительский, одноголосый (закадровый)
- Kerob

Информация о файле:

✦ Качество: HDTVRip

✦ Формат: AVI

✦ Видео кодек: XviD

✦ Аудио кодек: MP3

✦ Видео: 720x400, 1380 kbps, 23,976 fps, 0,187 bpp

✦ Аудио Ru: MP3, 48.0 KHz, 2 ch, 192 kbps

✦ Субтитры: отсутствуют
Внимание! Раздача ведётся путём добавления новых серий; при каждом добавлении создаётся новый торрент. Чтобы начать докачку новой серии, пользователям необходимо сделать следующее:
(1) остановить скачивание,
(2) удалить старый торрент у себя из клиента (старые серии удалять не надо),
(3) скачать новый торрент и запустить его у себя в клиенте вместо старого, при этом указать клиенту путь в старую папку куда и должно происходить скачивание новых серий.
Ваш клиент при этом должен произвести хеширование (проверку) старой папки (если не производит сам - помогите ему сделать это), и будет докачивать только те серии которых у вас ещё нет. Старые серии при этом не удаляются, а продолжают раздаваться!
Eсли вы уже удалили старые серии, то предотвратить повторную закачку старых серий можно, отжав галочку в соответсвующих местах при запуске нового торрента. По возможности, желательно не удалять старые серии как можно дольше чтобы релизёр не столько продолжал раздавать старые серии, а смог сконцентрироваться на новых.








Общее
Полное имя : D:\uTorrent\Стрела. Третий сезон\Strela.S03E07.HDTVRip.Kerob.avi
Формат : AVI
Формат/Информация : Audio Video Interleave
Размер файла : 490 Мбайт
Продолжительность : 42 м.
Общий поток : 1611 Кбит/сек
Программа кодирования : VirtualDubMod 1.5.10.2 (build 2540/release)
Библиотека кодирования : VirtualDubMod build 2540/release

Видео
Идентификатор : 0
Формат : xvid
Идентификатор кодека : xvid
Продолжительность : 42 м.
Битрейт : 1408 Кбит/сек
Ширина : 720 пикселей
Высота : 400 пикселей
Соотношение сторон : 16:9
Частота кадров : 30,000 кадров/сек
Бит/(Пиксели*Кадры) : 0.163
Размер потока : 428 Мбайт (87%)

Аудио
Идентификатор : 1
Формат : MPEG Audio
Версия формата : Version 1
Профиль формата : Layer 3
Режим : Joint stereo
Идентификатор кодека : 55
Идентификатор кодека/Подсказка : MP3
Продолжительность : 42 м.
Вид битрейта : Постоянный
Битрейт : 192 Кбит/сек
Каналы : 2 канала
Частота : 48,0 КГц
Метод сжатия : С потерями
Размер потока : 58,3 Мбайт (12%)
Выравнивание : Соединение по промежуткам
Продолжительность промежутка : 33 мс. (1,00 видеокадр)
Время предзагрузки промежутка : 504 мс.

Добавлена 13 серия сериала!!!kino.freetor.icu



Скачать Стрела через торрент http://i57.fastpic.ru/big/2014/0221/55/b3c40b5547bceb15b7267343f6f55755.gif Скачать, смотреть онлайн Стрела бесплантно в хорошем качестве Описание фильма: После пяти лет, проведенных на одном из необитаемых островов юго-восточной Азии, молодой и дерзкий миллиардер Оливер Куин ... 9.7 10 15
Info! Золотая раздача, скачанное не засчитывается.
Торрент: Зарегистрирован [2015-05-08 05:52] · скачан: 17 раз
Статус: √ проверено
Размер: 9.69 GB
Как cкачать? Как скачать Стрела через торрент | UTorrent



Последний раз редактировалось: _Fenixx_ни мужик ни баба (2015-05-08 15:20), всего редактировалось 3 раз(а)

28-11-2019 20:33  

Отключить всю рекламу на сайте

08-05-2015 14:34 Стрела Скачать торрент  

А где 22 серия то??kino.freetor.icu



08-05-2015 18:39 Стрела Скачать торрент  

в натуре уже 22 посмотрел ты издеваешься?kino.freetor.icu



    Дорогой пользователь! Огромная просьба, поблагодарите релизера, оцените раздачу и оставьте свои комментарий, если Вы скачали Стрела через торрент бесплатно!
    Комментировать посты могут только пользователи прошедшие не сложную регистрацию
    Показать сообщения:    

    Стрела через торрент
    Скачать бесплатно Стрела
    Стрела скачать торрент
    Стрела смотреть онлайн
    Cкачать фильм Стрела бесплатно
    Стрела скачать торрент в хорошем качестве
    Стрела смотреть онлайн бесплатно в хорошем качестве


    Вы не можете начинать темы
    Вы не можете отвечать на сообщения
    Вы не можете редактировать свои сообщения
    Вы не можете удалять свои сообщения
    Вы не можете голосовать в опросах
    Вы не можете прикреплять файлы к сообщениям
    Вы можете скачивать файлы