Присоединяйтесь к нам в Telegram!, здесь всегда актуальный адрес сайта, оперативная поддержка и многое другое!!

>

5.9

iTunes

7.4

iTunes

9.4

1 сезон

1

7.4

2 сезон

7.2

iTunes

7.3

1 сезон

13

6.1

iTunes

8.3

Пиратка

30

ULTIMATE

pack

9.9

Лицензия

ВАЖНО

ИГРА 18+

pack

7.3

RePack

MK11

7.7

RePack

jed

7.8

RePack

fifa19

8.5

RePack

RDR2

RePack

NEED FOR SPEED™ PAYBACK

5 сезон

9 сезон

Бесстыжие 9 сезон

Все сериалы

все сериалы на PB.wtf

RePack

FAR CRY 5

Anonymous, доброй ночи, мы катастрофически не успеваем собрать деньги на оплату серверов, помогите нам пожалуйста 5,10,15р., для нас важна любая помощь . В качестве благодарности мы отключим Вам всю рекламу на сайте (укажите свой ник в строку Ваше имя)!

×
  
Magnet ссылка

Отвязная Калифорния / California Scheming (Марко Вебер ) [2014, триллер, WEB-DL 720p, Профессиональный многоголосый [Лицензия] kino.freetor.icu

Отвязная Калифорния через торрент kino.freetor.icu

Размер: 3.46 GB | Добавлен: 6 лет 11 мес. назад | Торрент скачан:117 раз
Смотреть онлайн Отвязная Калифорния | Скачать    Ребята, помогите собрать деньги на оплату серверов!!!

06-12-2014 09:17 Отвязная Калифорния Скачать торрент  


Отвязная Калифорния / California Scheming

«Она сводит вас с ума»

Год выпуска: 2014
Страна:США
Жанр:триллер
Продолжительность: 01:39:13
Перевод:Профессиональный многоголосый [Лицензия]
Субтитры: английские,
Режиссер:Марко Вебер
В ролях:

Клаудия Кристиан (Mom), Спенсер Дэниелс (Jason Rourke), Маниш Дайал (Bombay Pepperdine), С.А. Гриффин (Mr. Rourke), Джессика Янн (Lily), Чад Лоу (Mr. Behrle), Джина Мантенья (Chloe Vandersteen), Майк Джером Путнэм (School Principal), Рэйчел Сейфёрт (Hillary), Девон Веркхейзер (Nick Behrle), Маргарит Носера (Nanny, в титрах не указана), Дин Рэдер-Дювалл (Dave, в титрах не указан)
  • Описание:
    Девушка-подросток втягивает трех молодых людей в свои интриги. Коварный замысел героини приводит к непредвиденным последствиям, заставляя ее жертв столкнуться лицом к лицу с собственными страхами и смертью...


    Качество:WEB-DL 720p
    Формат:MKV
    Видео кодек: AVC
    Аудио кодек:AC3
    Видео: AVC, 1280x544 (2.35:1), 4065 kbps, 23,976 fps, 0,244 bpp
    Аудио №1: русский / AC3 / 5.1 / 48 kHz / 448 kbps / 16 bit ||
    Аудио №2: английский / AC3 / 5.1 / 48 kHz / 384 kbps / 16 bit
    Навигация по главам: есть

    Код:

    General
    Unique ID                                : 241209740532939785902170631641262255925 (0xB5774E643D32000EBE6FC1DCFAD8EF35)
    Complete name                            : D:\Торенты\Otvjaznaja Kalifornija.2014.P.WEBDL.720p.mkv
    Format                                   : Matroska
    Format version                           : Version 4 / Version 2
    File size                                : 3.46 GiB
    Duration                                 : 1h 39mn
    Overall bit rate                         : 4 997 Kbps
    Encoded date                             : UTC 2014-12-04 16:46:11
    Writing application                      : mkvmerge v7.3.0 ('Nouages') 64bit built on Oct 22 2014 18:53:34
    Writing library                          : libebml v1.3.0 + libmatroska v1.4.1
    DURATION                                 : 01:39:13.760000000
    NUMBER_OF_FRAMES                         : 186055
    NUMBER_OF_BYTES                          : 333410560
    _STATISTICS_WRITING_APP                  : mkvmerge v7.3.0 ('Nouages') 64bit built on Oct 22 2014 18:53:34
    _STATISTICS_WRITING_DATE_UTC             : 2014-12-04 16:46:11
    _STATISTICS_TAGS                         : BPS DURATION NUMBER_OF_FRAMES NUMBER_OF_BYTES

    Video
    ID                                       : 1
    Format                                   : AVC
    Format/Info                              : Advanced Video Codec
    Format profile                           : Main@L3.1
    Format settings, CABAC                   : No
    Format settings, ReFrames                : 2 frames
    Codec ID                                 : V_MPEG4/ISO/AVC
    Duration                                 : 1h 39mn
    Bit rate                                 : 4 065 Kbps
    Width                                    : 1 280 pixels
    Height                                   : 544 pixels
    Display aspect ratio                     : 2.35:1
    Frame rate                               : 23.976 fps
    Color space                              : YUV
    Chroma subsampling                       : 4:2:0
    Bit depth                                : 8 bits
    Scan type                                : Progressive
    Bits/(Pixel*Frame)                       : 0.244
    Stream size                              : 2.82 GiB (81%)
    Language                                 : English
    Default                                  : Yes
    Forced                                   : Yes
    Color primaries                          : BT.709-5, BT.1361, IEC 61966-2-4, SMPTE RP177
    Transfer characteristics                 : BT.709-5, BT.1361
    Matrix coefficients                      : BT.709-5, BT.1361, IEC 61966-2-4 709, SMPTE RP177

    Audio #1
    ID                                       : 2
    Format                                   : AC-3
    Format/Info                              : Audio Coding 3
    Mode extension                           : CM (complete main)
    Codec ID                                 : A_AC3
    Duration                                 : 1h 39mn
    Bit rate mode                            : Constant
    Bit rate                                 : 448 Kbps
    Channel(s)                               : 6 channels
    Channel positions                        : Front: L C R, Side: L R, LFE
    Sampling rate                            : 48.0 KHz
    Bit depth                                : 16 bits
    Compression mode                         : Lossy
    Stream size                              : 318 MiB (9%)
    Language                                 : Russian
    Default                                  : Yes
    Forced                                   : Yes

    Audio #2
    ID                                       : 3
    Format                                   : AC-3
    Format/Info                              : Audio Coding 3
    Mode extension                           : CM (complete main)
    Codec ID                                 : A_AC3
    Duration                                 : 1h 39mn
    Bit rate mode                            : Constant
    Bit rate                                 : 384 Kbps
    Channel(s)                               : 6 channels
    Channel positions                        : Front: L C R, Side: L R, LFE
    Sampling rate                            : 48.0 KHz
    Bit depth                                : 16 bits
    Compression mode                         : Lossy
    Stream size                              : 273 MiB (8%)
    Language                                 : English
    Default                                  : No
    Forced                                   : No

    Text
    ID                                       : 4
    Format                                   : UTF-8
    Codec ID                                 : S_TEXT/UTF8
    Codec ID/Info                            : UTF-8 Plain Text
    Language                                 : English
    Default                                  : No
    Forced                                   : No

    Menu
    00:00:00.000                             : en:Chapter 1
    00:10:07.000                             : en:Chapter 2
    00:20:14.000                             : en:Chapter 3
    00:30:27.000                             : en:Chapter 4
    00:40:08.000                             : en:Chapter 5
    00:50:12.000                             : en:Chapter 6
    01:00:16.000                             : en:Chapter 7
    01:10:20.000                             : en:Chapter 8
    01:20:22.000                             : en:Chapter 9
    01:30:49.000                             : en:Chapter 10



    Срочно! Нужна помощь! Жмите

    © Оформление by Ворон
    kino.freetor.icu



  • Скачать Отвязная Калифорния через торрент https://pic1.kartinco.top/images/61/ordi9.jpg Скачать, смотреть онлайн Отвязная Калифорния бесплантно в хорошем качестве Описание:Девушка-подросток втягивает трех молодых людей в свои интриги. Коварный замысел героини приводит к непредвиденным последствиям, ... 10 10 7
    Торрент: Зарегистрирован [2014-12-06 09:17] · скачан: 117 раз
    Статус: √ проверено
    Размер: 3.46 GB
    Как cкачать? Как скачать Отвязная Калифорния через торрент | UTorrent

    % Раздел Тема Автор DL S | L
    Фильмы 2014 [DVDrip, WEB-DLRip, HDrip] [ 1.46 GB ] Отвязная Калифорния / California Scheming [2014 WEB-DLRip многоголосый [] Ворон Скачать
    1 | 0
    T Фильмы 2014 [DVDrip, WEB-DLRip, HDrip] [ 1.37 GB ] Отвязная Калифорния / California Scheming [2014 WEB-DLRip MVO] GEKADOL Скачать
    1 | 0

    28-11-2019 20:33  

    Отключить всю рекламу на сайте

      Дорогой пользователь! Огромная просьба, поблагодарите релизера, оцените раздачу и оставьте свои комментарий, если Вы скачали Отвязная Калифорния через торрент бесплатно!
      Комментировать посты могут только пользователи прошедшие не сложную регистрацию
      Показать сообщения:    

      Отвязная Калифорния через торрент
      Скачать бесплатно Отвязная Калифорния
      Отвязная Калифорния скачать торрент
      Отвязная Калифорния смотреть онлайн
      Cкачать фильм Отвязная Калифорния бесплатно
      Отвязная Калифорния скачать торрент в хорошем качестве
      Отвязная Калифорния смотреть онлайн бесплатно в хорошем качестве


      Вы не можете начинать темы
      Вы не можете отвечать на сообщения
      Вы не можете редактировать свои сообщения
      Вы не можете удалять свои сообщения
      Вы не можете голосовать в опросах
      Вы не можете прикреплять файлы к сообщениям
      Вы можете скачивать файлы