Присоединяйтесь к нам в Telegram!, здесь всегда актуальный адрес сайта, оперативная поддержка и многое другое!!

>

5.9

iTunes

7.4

iTunes

9.4

1 сезон

1

7.4

2 сезон

7.2

iTunes

7.3

1 сезон

13

6.1

iTunes

8.3

GOG

30

ULTIMATE

pack

9.9

Лицензия

ВАЖНО

ИГРА 18+

pack

7.3

RePack

MK11

7.7

RePack

jed

7.8

RePack

fifa19

8.5

RePack

RDR2

RePack

NEED FOR SPEED™ PAYBACK

5 сезон

9 сезон

Бесстыжие 9 сезон

Все сериалы

все сериалы на PB.wtf

RePack

FAR CRY 5

Anonymous, добрый вечер, мы катастрофически не успеваем собрать деньги на оплату серверов, помогите нам пожалуйста 5,10,15р., для нас важна любая помощь . В качестве благодарности мы отключим Вам всю рекламу на сайте (укажите свой ник в строку Ваше имя)!

×
  
Magnet ссылка

Лучшее во мне / The Best of Me (Майкл Хоффман / Michael Hoffman) [2014, США, драма, мелодрама, WEB-DL 720p, Дубляж - Лицензия / iTunes] kino.freetor.icu

Лучшее во мне через торрент kino.freetor.icu

Размер: 3.59 GB | Добавлен: 6 лет 11 мес. назад | Торрент скачан:486 раз
Смотреть онлайн Лучшее во мне | Скачать    Ребята, помогите собрать деньги на оплату серверов!!!

15-12-2014 05:13 Лучшее во мне Скачать торрент  


Информация о фильме

Название: Лучшее во мне

Оригинальное название: The Best of Me

Год выхода: 2014

Выпущено: США / DiNovi Pictures, Finch Entertainment, Relativity Media, Surefire Entertainment Capital

Продолжительность: 01:50:55

Озвучивание: Дублированное [iTunes]
Субтитры: Английские

Жанр: Драма, мелодрама

Режиссер: Майкл Хоффман

В ролях: Джеймс Марсден, Мишель Монахэн, Лиана Либерато, Люк Брейси, Джералд МакРэйни, Кэролайн Гудолл, Скайлер Фиск, Джон Тенни, Себастьян

Описание: История о двух бывших возлюбленных подростках. Никто из них не жил жизнью, которую они представляли и никто не может забыть страстную первую любовь, которая изменила всю жизнь. И вот обоих зовут на похороны их наставника, который когда-то дал им приют…



Файл
Качество: WEB-DL 720p
  • Формат: MKV
  • Видео кодек: AVC
  • Аудио кодек:AC3
    Видео: MPEG-4 AVC, 4500 Kb/s, 1280x532, 24.000 fps
    Аудио: AC3, 384 Kb/s (6 ch)/ 48 kHz
    General
    Unique ID : 190518564123798433205428771825160898877 (0x8F548A6F4C36DECAB7CF5D6EF61D493D)
    Complete name : Lu4shee.v0.MHe.2014.D.WEB-DL.720p.mkv
    Format : Matroska
    Format version : Version 4 / Version 2
    File size : 3.59 GiB
    Duration : 1h 57mn
    Overall bit rate : 4 363 Kbps
    Encoded date : UTC 2014-12-14 21:07:49
    Writing application : mkvmerge v6.9.1 ('Blue Panther') 64bit built on Apr 18 2014 18:23:38
    Writing library : libebml v1.3.0 + libmatroska v1.4.1

    Video
    ID : 1
    Format : AVC
    Format/Info : Advanced Video Codec
    Format profile : Main@L3.1
    Format settings, CABAC : No
    Format settings, ReFrames : 2 frames
    Codec ID : V_MPEG4/ISO/AVC
    Duration : 1h 57mn
    Bit rate : 3 892 Kbps
    Width : 1 280 pixels
    Height : 540 pixels
    Display aspect ratio : 2.40:1
    Frame rate mode : Constant
    Frame rate : 24.000 fps
    Color space : YUV
    Chroma subsampling : 4:2:0
    Bit depth : 8 bits
    Scan type : Progressive
    Bits/(Pixel*Frame) : 0.235
    Stream size : 3.20 GiB (89%)
    Language : English
    Default : Yes
    Forced : No
    Color primaries : BT.709
    Transfer characteristics : BT.709
    Matrix coefficients : BT.709

    Audio
    ID : 2
    Format : AC-3
    Format/Info : Audio Coding 3
    Mode extension : CM (complete main)
    Format settings, Endianness : Big
    Codec ID : A_AC3
    Duration : 1h 57mn
    Bit rate mode : Constant
    Bit rate : 384 Kbps
    Channel(s) : 6 channels
    Channel positions : Front: L C R, Side: L R, LFE
    Sampling rate : 48.0 KHz
    Bit depth : 16 bits
    Compression mode : Lossy
    Stream size : 323 MiB (9%)
    Language : Russian
    Default : Yes
    Forced : No

    Menu
    00:00:00.000 : en:Глава 1
    00:05:12.000 : en:Глава 2
    00:09:48.000 : en:Глава 3
    00:14:52.000 : en:Глава 4
    00:19:36.000 : en:Глава 5
    00:24:31.000 : en:Глава 6
    00:29:54.000 : en:Глава 7
    00:36:13.000 : en:Глава 8
    00:41:24.000 : en:Глава 9
    00:46:19.000 : en:Глава 10
    00:51:13.000 : en:Глава 11
    00:56:51.000 : en:Глава 12
    01:02:05.000 : en:Глава 13
    01:07:39.000 : en:Глава 14
    01:13:00.000 : en:Глава 15
    01:18:57.000 : en:Глава 16
    01:24:54.000 : en:Глава 17
    01:30:41.000 : en:Глава 18
    01:36:18.000 : en:Глава 19
    01:43:11.000 : en:Глава 20
    01:49:12.000 : en:Глава 21
    Скачать: Сэмпл


    kino.freetor.icu



  • Скачать Лучшее во мне через торрент http://i67.fastpic.ru/big/2014/1215/11/3ded9955f55c8dddf857a4d661a68111.png Скачать, смотреть онлайн Лучшее во мне бесплантно в хорошем качестве Описание: История о двух бывших возлюбленных подростках. Никто из них не жил жизнью, которую они представляли и никто не может забыть ... 10 10 11
    Торрент: Зарегистрирован [2014-12-15 05:13] · скачан: 486 раз
    Статус: √ проверено
    Размер: 3.59 GB
    Как cкачать? Как скачать Лучшее во мне через торрент | UTorrent

    % Раздел Тема Автор DL S | L
    Фильмы 2014 [DVDrip, WEB-DLRip, HDrip] [ 1.46 GB ] Лучшее во мне / The Best of Me [2014 WEB-DLRip - / ] _KaisiK_ Скачать
    2 | 0
    Фильмы [HD 720p, 1080p] (Хороший звук DUB, MVO) [ 9.06 GB ] Лучшее во мне / The Best of Me [2014 BDRip 1080p ] Ворон Скачать
    1 | 0
    Фильмы 2014 [DVDrip, WEB-DLRip, HDrip] [ 2.19 GB ] Лучшее во мне / The Best of Me [2014 HDRip ""] coc900 Скачать
    1 | 0

    28-11-2019 20:33  

    Отключить всю рекламу на сайте

      Дорогой пользователь! Огромная просьба, поблагодарите релизера, оцените раздачу и оставьте свои комментарий, если Вы скачали Лучшее во мне через торрент бесплатно!
      Комментировать посты могут только пользователи прошедшие не сложную регистрацию
      Показать сообщения:    

      Лучшее во мне через торрент
      Скачать бесплатно Лучшее во мне
      Лучшее во мне скачать торрент
      Лучшее во мне смотреть онлайн
      Cкачать фильм Лучшее во мне бесплатно
      Лучшее во мне скачать торрент в хорошем качестве
      Лучшее во мне смотреть онлайн бесплатно в хорошем качестве


      Вы не можете начинать темы
      Вы не можете отвечать на сообщения
      Вы не можете редактировать свои сообщения
      Вы не можете удалять свои сообщения
      Вы не можете голосовать в опросах
      Вы не можете прикреплять файлы к сообщениям
      Вы можете скачивать файлы