Присоединяйтесь к нам в Telegram!, здесь всегда актуальный адрес сайта, оперативная поддержка и многое другое!!

>

5.9

iTunes

7.4

iTunes

9.4

1 сезон

1

7.4

2 сезон

7.2

iTunes

7.3

iTunes

13

6.1

iTunes

8.3

Пиратка

30

ULTIMATE

pack

9.9

Лицензия

ВАЖНО

ИГРА 18+

pack

7.3

RePack

MK11

7.7

RePack

jed

7.8

RePack

fifa19

8.5

RePack

RDR2

RePack

NEED FOR SPEED™ PAYBACK

5 сезон

9 сезон

Бесстыжие 9 сезон

Все сериалы

все сериалы на PB.wtf

RePack

FAR CRY 5

Anonymous, доброе утро, мы катастрофически не успеваем собрать деньги на оплату серверов, помогите нам пожалуйста 5,10,15р., для нас важна любая помощь . В качестве благодарности мы отключим Вам всю рекламу на сайте (укажите свой ник в строку Ваше имя)!

×
  
Magnet ссылка

Санаторий / Sanitarium (Брайан Ортиз / Bryan Ortiz, Брайан Рамирес / Bryan Ramirez, Керри Вальдеррама / Kerry Valderrama) [2013, США, ужасы, триллер, WEB-DL 720p] MVO kino.freetor.icu

Санаторий через торрент kino.freetor.icu

Размер: 3.63 GB | Добавлен: 6 лет 11 мес. назад | Торрент скачан:137 раз
Смотреть онлайн Санаторий | Скачать    Ребята, помогите собрать деньги на оплату серверов!!!

28-12-2014 04:40 Санаторий Скачать торрент  

Санаторий / Sanitarium


  • Год выпуска: 2013
  • Страна: США
  • Жанр: ужасы, триллер
  • Продолжительность: 01:52:25
  • Перевод: Профессиональный многоголосый закадровый
  • Субтитры: русские,английские
  • Режиссер: Брайан Ортиз / Bryan Ortiz, Брайан Рамирес / Bryan Ramirez, Керри Вальдеррама / Kerry Valderrama
  • В ролях:

    Малкольм МакДауэлл (Dr. Stenson), Лу Даймонд Филлипс (James Silo), Джон Гловер (Gustav), Роберт Инглунд (Sam), Дэвид Мазоуз (Steven), Лейси Чаберт (Ms. Lorne), Крис Малки (Father), Майра Леаль (Isabelle), Robert M. Adams (Art Gallery Patron), Araina Alderete (College Student), Eddie Alvarez (Club Patron), Нова Кларк (Allison)

  • Описание:
    Действия фильма происходят в психиатрической клинике, которой долгие годы управляет доктор Генри Стенсон. За все это время ему пришлось столкнуться с множеством пациентов, страдающих психическим расстройством. Каждый из них оказался в этой клинике по разным причинам и пережил в своей жизни нечто, что привело к столь печальным последствиям. Однако из всех этих историй доктор Генри выделяет три, о которых он и поведает зрителю. Нам предстоит узнать о трех непростых судьбах: бывшего художника Густафа, творческий путь которого сопровождался мистикой; профессора, который ради науки добровольно заточил себя и маленького мальчика, которому пришлось жить в страшном аду с отцом-педофилом.
  • Рейтинг:



  • Качество: WEB-DL 720p
  • Формат: :MKV
  • Видео кодек: AVC
  • Аудио кодек: AC3
  • Видео: 1280x636 (2.013), 3955 kbps, 23,976 fps, 0,203 bpp
  • Аудио №1: русский / 2.0 / 48 kHz / 192 kbps / 16 bit
  • Аудио №2: английский / 5.1 / 48 kHz / 384 kbps / 16 bit
  • Релиз от: GEKADOL

    Код:

    General
    Unique ID                                : 205187327079838009173781380783434241535 (0x9A5DA4494802D902B03CC40A0F1E15FF)
    Complete name                            : I:\Sanitarium.2013.WEB-DL.720p.CINEMANIA.mkv
    Format                                   : Matroska
    Format version                           : Version 4 / Version 2
    File size                                : 3.63 GiB
    Duration                                 : 1h 52mn
    Overall bit rate                         : 4 623 Kbps
    Movie name                               : Release Group CINEMANIA
    Encoded date                             : UTC 2014-12-27 19:22:07
    Writing application                      : mkvmerge v7.4.0 ('Circles') 64bit built on Dec 12 2014 12:19:56
    Writing library                          : libebml v1.3.0 + libmatroska v1.4.1

    Video
    ID                                       : 1
    Format                                   : AVC
    Format/Info                              : Advanced Video Codec
    Format profile                           : High@L3.1
    Format settings, CABAC                   : No
    Format settings, ReFrames                : 2 frames
    Codec ID                                 : V_MPEG4/ISO/AVC
    Duration                                 : 1h 52mn
    Bit rate                                 : 3 955 Kbps
    Width                                    : 1 280 pixels
    Height                                   : 636 pixels
    Display aspect ratio                     : 2.013
    Frame rate                               : 23.976 fps
    Color space                              : YUV
    Chroma subsampling                       : 4:2:0
    Bit depth                                : 8 bits
    Scan type                                : Progressive
    Bits/(Pixel*Frame)                       : 0.203
    Stream size                              : 3.11 GiB (86%)
    Title                                    : Release Group CINEMANIA
    Language                                 : English
    Default                                  : Yes
    Forced                                   : No
    Color primaries                          : BT.709-5, BT.1361, IEC 61966-2-4, SMPTE RP177
    Transfer characteristics                 : BT.709-5, BT.1361
    Matrix coefficients                      : BT.709-5, BT.1361, IEC 61966-2-4 709, SMPTE RP177

    Audio #1
    ID                                       : 2
    Format                                   : AC-3
    Format/Info                              : Audio Coding 3
    Mode extension                           : CM (complete main)
    Codec ID                                 : A_AC3
    Duration                                 : 1h 52mn
    Bit rate mode                            : Constant
    Bit rate                                 : 192 Kbps
    Channel(s)                               : 2 channels
    Channel positions                        : Front: L R
    Sampling rate                            : 48.0 KHz
    Bit depth                                : 16 bits
    Compression mode                         : Lossy
    Stream size                              : 154 MiB (4%)
    Title                                    : Официальная озвучка
    Language                                 : Russian
    Default                                  : Yes
    Forced                                   : Yes

    Audio #2
    ID                                       : 3
    Format                                   : AC-3
    Format/Info                              : Audio Coding 3
    Mode extension                           : CM (complete main)
    Codec ID                                 : A_AC3
    Duration                                 : 1h 52mn
    Bit rate mode                            : Constant
    Bit rate                                 : 384 Kbps
    Channel(s)                               : 6 channels
    Channel positions                        : Front: L C R, Side: L R, LFE
    Sampling rate                            : 48.0 KHz
    Bit depth                                : 16 bits
    Compression mode                         : Lossy
    Stream size                              : 309 MiB (8%)
    Language                                 : English
    Default                                  : No
    Forced                                   : No

    Text #1
    ID                                       : 4
    Format                                   : UTF-8
    Codec ID                                 : S_TEXT/UTF8
    Codec ID/Info                            : UTF-8 Plain Text
    Language                                 : Russian
    Default                                  : Yes
    Forced                                   : Yes

    Text #2
    ID                                       : 5
    Format                                   : UTF-8
    Codec ID                                 : S_TEXT/UTF8
    Codec ID/Info                            : UTF-8 Plain Text
    Language                                 : English
    Default                                  : No
    Forced                                   : No

    Menu
    00:00:00.000                             : en:Sanitarium
    00:02:43.000                             : en:Figuratively Speaking
    00:30:53.000                             : en:Monsters Are Real
    01:04:48.000                             : en:Up To The Last Man
    01:48:27.000                             : en:Credits


    Скриншоты:



    kino.freetor.icu



  • Скачать Санаторий через торрент http://i64.fastpic.ru/big/2014/1228/bb/16517d37408768400733cd2a727b68bb.jpg Скачать, смотреть онлайн Санаторий бесплантно в хорошем качестве Описание: Действия фильма происходят в психиатрической клинике, которой долгие годы управляет доктор Генри Стенсон. За все это время ему ... 9.7 10 9
    Торрент: Зарегистрирован [2014-12-28 04:40] · скачан: 137 раз
    Статус: √ проверено
    Размер: 3.63 GB
    Как cкачать? Как скачать Санаторий через торрент | UTorrent

    % Раздел Тема Автор DL S | L
    Фильмы (Blu-ray, BD-Remux, HDDVD) [ 20.21 GB ] Санаторий / Sanitarium [2013 BDRemux ] MVO Ворон Скачать
    1 | 0
    Фильмы 2013 [DVDrip, WEB-DLRip, HDrip] [ 1.37 GB ] Санаторий / Sanitarium [2013 DVDRip] MVO Ворон Скачать
    1 | 0

    28-11-2019 20:33  

    Отключить всю рекламу на сайте

      Дорогой пользователь! Огромная просьба, поблагодарите релизера, оцените раздачу и оставьте свои комментарий, если Вы скачали Санаторий через торрент бесплатно!
      Комментировать посты могут только пользователи прошедшие не сложную регистрацию
      Показать сообщения:    

      Санаторий через торрент
      Скачать бесплатно Санаторий
      Санаторий скачать торрент
      Санаторий смотреть онлайн
      Cкачать фильм Санаторий бесплатно
      Санаторий скачать торрент в хорошем качестве
      Санаторий смотреть онлайн бесплатно в хорошем качестве


      Вы не можете начинать темы
      Вы не можете отвечать на сообщения
      Вы не можете редактировать свои сообщения
      Вы не можете удалять свои сообщения
      Вы не можете голосовать в опросах
      Вы не можете прикреплять файлы к сообщениям
      Вы можете скачивать файлы