Присоединяйтесь к нам в Telegram!, здесь всегда актуальный адрес сайта, оперативная поддержка и многое другое!!

>

5.9

iTunes

7.4

iTunes

9.4

1 сезон

1

7.4

2 сезон

7.2

iTunes

7.3

1 сезон

13

6.1

iTunes

8.3

GOG

30

ULTIMATE

pack

9.9

Лицензия

ВАЖНО

ИГРА 18+

pack

7.3

RePack

MK11

7.7

RePack

jed

7.8

RePack

fifa19

8.5

RePack

RDR2

RePack

NEED FOR SPEED™ PAYBACK

5 сезон

9 сезон

Бесстыжие 9 сезон

Все сериалы

все сериалы на PB.wtf

RePack

FAR CRY 5

Anonymous, добрый день, мы катастрофически не успеваем собрать деньги на оплату серверов, помогите нам пожалуйста 5,10,15р., для нас важна любая помощь . В качестве благодарности мы отключим Вам всю рекламу на сайте (укажите свой ник в строку Ваше имя)!

×
  
Magnet ссылка

Честь семьи Прицци / Prizzi's Honor (Джон Хьюстон) [1985, мелодрама, драма, криминал, HDTVRip 720p] MVO, 2 x AVO kino.freetor.icu

Честь семьи Прицци через торрент kino.freetor.icu

Размер: 4.42 GB | Добавлен: 6 лет 10 мес. назад | Торрент скачан:38 раз
Смотреть онлайн Честь семьи Прицци | Скачать    Ребята, помогите собрать деньги на оплату серверов!!!

05-01-2015 08:18 Честь семьи Прицци Скачать торрент  

Честь семьи Прицци / Prizzi's Honor

Год выпуска: 1985
Страна: США
Жанр: мелодрама, драма, криминал
Продолжительность: 02:08:36
Перевод: профессиональный многоголосый, авторский
Субтитры: русские, английские

Режиссёр: Джон Хьюстон

В ролях: Джек Николсон, Кэтлин Тёрнер, Уильям Хикки, Роберт Лоджа, Анжелика Хьюстон, Джон Рэндольф, Ли Ричардсон, Майкл Ломбард, Си Си Эйч Паундер, Лоуренс Тирни, Джордж Сантопьетро, Энн Селепеньо, Вик Полицос, Дик О’Нил, Салли Бойар

Описание: Чарли, крёстный сын клана Прицци, не лезет в чужие дела, любит вкусно поесть и выпить, стремится поиметь побольше женщин и поубивать всех, кто стоит на пути семьи. Влюбившись в шикарную блондинку Айрин, он только после свадьбы узнаёт, что его красавица-жена наёмная убийца, одна из лучших в этом бизнесе. А когда Чарли отправляют в Лас-Вегас, чтобы выправить кое-что для его Дона, он обнаруживает, что обожаемая Айрин слишком крута даже для его видавших виды глаз…



Качество: HDTVRip 720p Сравнение с исходником
Формат: MKV
Видео кодек: H.264
Аудио кодек: AC3
Видео: 3864 Кбит/с, 1280x714, 23.976 кадра/с, 0.141 bpp
Аудио 1: русский, AC3, 384 kbps, 6 ch, 48 kHz [профессиональный многоголосый]
Аудио 2: русский, AC3, 192 kbps, 2 ch, 48 kHz [авторский, Пётр Карцев]
Аудио 3: русский, AC3, 192 kbps, 2 ch, 48 kHz [авторский, Алексей Михалёв]
Аудио 4: английский, AC3, 192 kbps, 2 ch, 48 kHz [оригинал]

Имеются неименованные главы/чаптеры.
Приз Национального совета обозревателей за второплановую женскую роль (Анджелика Хьюстон).

Оскар, 1986 год
Победитель (1):
Лучшая женская роль второго плана (Анжелика Хьюстон)

Номинации (7):
Лучший фильм
Лучшая мужская роль (Джек Николсон)
Лучшая мужская роль второго плана (Уильям Хикки)
Лучший режиссер (Джон Хьюстон)
Лучший адаптированный сценарий
Лучшие костюмы
Лучший монтаж

Золотой глобус, 1986 год
Победитель (4):
Лучший фильм (комедия или мюзикл)
Лучшая мужская роль (комедия или мюзикл) (Джек Николсон)
Лучшая женская роль (комедия или мюзикл) (Кэтлин Тёрнер)
Лучший режиссер (Джон Хьюстон)

Номинации (2):
Лучшая женская роль второго плана (Анжелика Хьюстон)
Лучший сценарий

Британская академия, 1986 год
Победитель (1):
Лучший адаптированный сценарий

Номинации (1):
Лучшая женская роль второго плана (Анжелика Хьюстон)
frame I:1070 Avg QP:14.58 size: 83647
frame P:44796 Avg QP:15.81 size: 40966
frame B:185398 Avg QP:17.85 size: 10218

Общее
Уникальный идентификатор : 227768907143121407954530122186122969320 (0xAB5AB224526CD8D18D0412DBFB71C0E8)
Полное имя : D:VideoChest semji Prizzi.1985.BDRip.720p.mkv
Формат : Matroska
Версия формата : Version 4 / Version 2
Размер файла : 4,42 Гбайт
Продолжительность : 2 ч. 8 м.
Общий поток : 4922 Кбит/сек
Дата кодирования : UTC 2015-01-05 03:39:31
Программа кодирования : mkvmerge v7.4.0 ('Circles') 64bit built on Dec 12 2014 12:19:56
Библиотека кодирования : libebml v1.3.0 + libmatroska v1.4.1
DURATION : 02:06:05.964000000
NUMBER_OF_FRAMES : 1488
NUMBER_OF_BYTES : 48921
_STATISTICS_WRITING_APP : mkvmerge v7.4.0 ('Circles') 64bit built on Dec 12 2014 12:19:56
_STATISTICS_WRITING_DATE_UTC : 2015-01-05 03:39:31
_STATISTICS_TAGS : BPS DURATION NUMBER_OF_FRAMES NUMBER_OF_BYTES

Видео
Идентификатор : 1
Формат : AVC
Формат/Информация : Advanced Video Codec
Профиль формата : High@L4.1
Параметр CABAC формата : Да
Параметр ReFrames формата : 9 кадров
Идентификатор кодека : V_MPEG4/ISO/AVC
Продолжительность : 2 ч. 8 м.
Битрейт : 3864 Кбит/сек
Ширина : 1280 пикселей
Высота : 714 пикселей
Соотношение сторон : 16:9
Режим частоты кадров : Постоянный
Частота кадров : 29,970 кадров/сек
Цветовое пространство : YUV
Субдискретизация насыщенности : 4:2:0
Битовая глубина : 8 бит
Тип развёртки : Прогрессивная
Бит/(Пиксели*Кадры) : 0.141
Размер потока : 3,47 Гбайт (79%)
Заголовок : BDRip -- STarankov
Библиотека кодирования : x264 core 142 r2431 ac76440
Настройки программы : cabac=1 / ref=9 / deblock=1:-1:-1 / analyse=0x3:0x113 / me=umh / subme=10 / psy=1 / psy_rd=1.00:0.15 / mixed_ref=1 / me_range=32 / chroma_me=1 / trellis=2 / 8x8dct=1 / cqm=0 / deadzone=21,11 / fast_pskip=1 / chroma_qp_offset=-3 / threads=6 / lookahead_threads=1 / sliced_threads=0 / nr=0 / decimate=1 / interlaced=0 / bluray_compat=0 / constrained_intra=0 / bframes=8 / b_pyramid=2 / b_adapt=2 / b_bias=0 / direct=3 / weightb=1 / open_gop=0 / weightp=2 / keyint=288 / keyint_min=28 / scenecut=40 / intra_refresh=0 / rc_lookahead=40 / rc=crf / mbtree=0 / crf=17.0 / qcomp=0.60 / qpmin=0 / qpmax=69 / qpstep=4 / vbv_maxrate=40000 / vbv_bufsize=50000 / crf_max=0.0 / nal_hrd=none / filler=0 / ip_ratio=1.40 / pb_ratio=1.30 / aq=1:1.00
Язык : English
Default : Да
Forced : Нет
DURATION : 02:08:36.508000000
NUMBER_OF_FRAMES : 231264
NUMBER_OF_BYTES : 3818983551
_STATISTICS_WRITING_APP : mkvmerge v7.4.0 ('Circles') 64bit built on Dec 12 2014 12:19:56
_STATISTICS_WRITING_DATE_UTC : 2015-01-05 03:39:31
_STATISTICS_TAGS : BPS DURATION NUMBER_OF_FRAMES NUMBER_OF_BYTES

Аудио #1
Идентификатор : 2
Формат : AC-3
Формат/Информация : Audio Coding 3
Расширение режима : CM (complete main)
Параметр Endianness формата : Big
Идентификатор кодека : A_AC3
Продолжительность : 2 ч. 8 м.
Вид битрейта : Постоянный
Битрейт : 384 Кбит/сек
Каналы : 6 каналов
Расположение каналов : Front: L C R, Side: L R, LFE
Частота : 48,0 КГц
Битовая глубина : 16 бит
Метод сжатия : С потерями
Размер потока : 353 Мбайт (8%)
Заголовок : MVO
Язык : Russian
Default : Да
Forced : Нет

Аудио #2
Идентификатор : 3
Формат : AC-3
Формат/Информация : Audio Coding 3
Расширение режима : CM (complete main)
Параметр Endianness формата : Big
Идентификатор кодека : A_AC3
Продолжительность : 2 ч. 8 м.
Вид битрейта : Постоянный
Битрейт : 192 Кбит/сек
Каналы : 2 канала
Расположение каналов : Front: L R
Частота : 48,0 КГц
Битовая глубина : 16 бит
Метод сжатия : С потерями
Размер потока : 177 Мбайт (4%)
Заголовок : AVO (Пётр Карцев)
Язык : Russian
Default : Нет
Forced : Нет

Аудио #3
Идентификатор : 4
Формат : AC-3
Формат/Информация : Audio Coding 3
Расширение режима : CM (complete main)
Параметр Endianness формата : Big
Идентификатор кодека : A_AC3
Продолжительность : 2 ч. 8 м.
Вид битрейта : Постоянный
Битрейт : 192 Кбит/сек
Каналы : 2 канала
Расположение каналов : Front: L R
Частота : 48,0 КГц
Битовая глубина : 16 бит
Метод сжатия : С потерями
Размер потока : 177 Мбайт (4%)
Заголовок : AVO (Алексей Михалёв)
Язык : Russian
Default : Нет
Forced : Нет

Аудио #4
Идентификатор : 5
Формат : AC-3
Формат/Информация : Audio Coding 3
Расширение режима : CM (complete main)
Параметр Endianness формата : Big
Идентификатор кодека : A_AC3
Продолжительность : 2 ч. 8 м.
Вид битрейта : Постоянный
Битрейт : 192 Кбит/сек
Каналы : 2 канала
Расположение каналов : Front: L R
Частота : 48,0 КГц
Битовая глубина : 16 бит
Метод сжатия : С потерями
Размер потока : 177 Мбайт (4%)
Заголовок : Original
Язык : English
Default : Нет
Forced : Нет

Текст #1
Идентификатор : 6
Формат : UTF-8
Идентификатор кодека : S_TEXT/UTF8
Идентификатор кодека/Информация : UTF-8 Plain Text
Заголовок : русский
Язык : Russian
Default : Нет
Forced : Нет

Текст #2
Идентификатор : 7
Формат : UTF-8
Идентификатор кодека : S_TEXT/UTF8
Идентификатор кодека/Информация : UTF-8 Plain Text
Заголовок : английский
Default : Нет
Forced : Нет

Меню
00:00:00.000 : :Chapter 01
00:18:33.345 : :Chapter 02
00:53:11.488 : :Chapter 03
01:15:02.731 : :Chapter 04
01:25:42.136 : :Chapter 05
02:03:34.340 : :Chapter 06
kino.freetor.icu



Скачать Честь семьи Прицци через торрент http://i67.fastpic.ru/big/2015/0105/18/e6ea8d79fcecf08f8ee51b9435187318.jpg Скачать, смотреть онлайн Честь семьи Прицци бесплантно в хорошем качестве Описание: Чарли, крёстный сын клана Прицци, не лезет в чужие дела, любит вкусно поесть и выпить, стремится поиметь побольше женщин и ... 10 10 4
Торрент: Зарегистрирован [2015-01-05 08:18] · скачан: 38 раз
Статус: √ проверено
Размер: 4.42 GB
Как cкачать? Как скачать Честь семьи Прицци через торрент | UTorrent

28-11-2019 20:33  

Отключить всю рекламу на сайте

    Дорогой пользователь! Огромная просьба, поблагодарите релизера, оцените раздачу и оставьте свои комментарий, если Вы скачали Честь семьи Прицци через торрент бесплатно!
    Комментировать посты могут только пользователи прошедшие не сложную регистрацию
    Показать сообщения:    

    Честь семьи Прицци через торрент
    Скачать бесплатно Честь семьи Прицци
    Честь семьи Прицци скачать торрент
    Честь семьи Прицци смотреть онлайн
    Cкачать фильм Честь семьи Прицци бесплатно
    Честь семьи Прицци скачать торрент в хорошем качестве
    Честь семьи Прицци смотреть онлайн бесплатно в хорошем качестве


    Вы не можете начинать темы
    Вы не можете отвечать на сообщения
    Вы не можете редактировать свои сообщения
    Вы не можете удалять свои сообщения
    Вы не можете голосовать в опросах
    Вы не можете прикреплять файлы к сообщениям
    Вы можете скачивать файлы