Присоединяйтесь к нам в Telegram!, здесь всегда актуальный адрес сайта, оперативная поддержка и многое другое!!

>

5.9

iTunes

7.4

iTunes

9.4

1 сезон

1

7.4

2 сезон

7.2

iTunes

7.3

1 сезон

13

6.1

iTunes

8.3

Пиратка

30

ULTIMATE

pack

9.9

Лицензия

ВАЖНО

ИГРА 18+

pack

7.3

RePack

MK11

7.7

RePack

jed

7.8

RePack

fifa19

8.5

RePack

RDR2

RePack

NEED FOR SPEED™ PAYBACK

5 сезон

9 сезон

Бесстыжие 9 сезон

Все сериалы

все сериалы на PB.wtf

RePack

FAR CRY 5

Anonymous, доброй ночи, мы катастрофически не успеваем собрать деньги на оплату серверов, помогите нам пожалуйста 5,10,15р., для нас важна любая помощь . В качестве благодарности мы отключим Вам всю рекламу на сайте (укажите свой ник в строку Ваше имя)!

×
  
Magnet ссылка

Силы природы / Forces of Nature (Бронуэн Хьюз) [1999 г., мелодрама, комедия, WEB-DL 720p]MVO(iTunes Russia) + Original kino.freetor.icu

Силы природы через торрент kino.freetor.icu

Размер: 3.74 GB | Добавлен: 6 лет 10 мес. назад | Торрент скачан:50 раз
Смотреть онлайн Силы природы | Скачать    Ребята, помогите собрать деньги на оплату серверов!!!

08-01-2015 13:09 Силы природы Скачать торрент  

Силы природы / Forces of Nature
Год выпуска: 1999
Страна: США
Жанр: мелодрама, комедия
Продолжительность: 01:45:54
Перевод: Профессиональный многоголосый(iTunes Russia)

Режиссер: Бронуэн Хьюз



В ролях: Бен Аффлек, Сандра Буллок, Мора Тирни, Стив Зан, Блайт Даннер, Ронни Кокс, Майкл Фэйрмэн, Ричард Шифф, Афина Мария Бицис, Афемо Омилами

Описание: У героя этой картины, Бена, в запасе всего два дня, чтобы добраться из Нью-Йорка в городок Саванна, что в штате Джорджия, и успеть на собственную свадьбу с прекрасной девушкой. Но внезапно на его пути возникает непреодолимое препятствие в лице разбушевавшейся природы. Самолет, в котором герой отправляется к своей невесте, попадает в аварию.

Теперь Бену и его новой эксцентричной попутчице, по имени Сара, предстоит захватывающее совместное путешествие. Атмосферные катаклизмы и дорожные происшествия продолжают неотступно преследовать их в пути. А тут еще Бен с ужасом начинает осознавать, что влюбляется в Сару…

Качество: WEB-DL 720p
Формат: MKV
Видео кодек: AVC
Аудио кодек: AC3
Видео: 1280x720 (16:9), 23.976 fps, 4 181 Kbps (0.189 bit/pixel)
Аудио#1: 48.0 KHz, 6 ch, 384 Kbps, CBR (Russian)
Аудио#2: 48.0 KHz, 6 ch, 384 Kbps, CBR (English)
Релиз от:
скриншот   скриншот   скриншот   скриншот   скриншот   скриншот   скриншот  

Общее
Уникальный идентификатор : 253863925524972168505843969391691941291 (0xBEFC69E17B3EAD14865F27C96A5DC5AB)
Полное имя : I:\Силы природы Forces of Nature\Forces.of.Nature.1999.720p.WEB-DL.Rus.Eng.HDCLUB.mkv
Формат : Matroska
Версия формата : Version 2
Размер файла : 3,74 Гбайт
Продолжительность : 1 ч. 45 м.
Общий поток : 5050 Кбит/сек
Название фильма : Forces of Nature (1999) - Release for HDCLUB
Дата кодирования : UTC 2015-01-06 13:54:48
Программа кодирования : mkvmerge v3.4.0 ('Rapunzel') built on May 15 2010 09:38:20
Библиотека кодирования : libebml v0.8.0 + libmatroska v0.9.0

Видео
Идентификатор : 1
Формат : AVC
Формат/Информация : Advanced Video Codec
Профиль формата : High@L3.1
Параметр CABAC формата : Нет
Параметр ReFrames формата : 2 кадра
Идентификатор кодека : V_MPEG4/ISO/AVC
Продолжительность : 1 ч. 45 м.
Битрейт : 4181 Кбит/сек
Ширина : 1280 пикселей
Высота : 720 пикселей
Соотношение сторон : 16:9
Режим частоты кадров : Постоянный
Частота кадров : 23,976 кадра/сек
Цветовое пространство : YUV
Субдискретизация насыщенности : 4:2:0
Битовая глубина : 8 бит
Тип развёртки : Прогрессивная
Бит/(Пиксели*Кадры) : 0.189
Размер потока : 3,09 Гбайт (83%)
Заголовок : Forces of Nature (1999) - Release for HDCLUB
Язык : English
Default : Да
Forced : Нет
Основные цвета : BT.709
Характеристики трансфера : BT.709
Коэффициенты матрицы : BT.709
colour_range : Limited

Аудио #1
Идентификатор : 2
Формат : AC-3
Формат/Информация : Audio Coding 3
Расширение режима : CM (complete main)
Параметр Endianness формата : Big
Идентификатор кодека : A_AC3
Продолжительность : 1 ч. 45 м.
Вид битрейта : Постоянный
Битрейт : 384 Кбит/сек
Каналы : 6 каналов
Расположение каналов : Front: L C R, Side: L R, LFE
Частота : 48,0 КГц
Битовая глубина : 16 бит
Метод сжатия : С потерями
Размер потока : 291 Мбайт (8%)
Заголовок : AC3 5.1 @ 384 kbps - MVO, iTunes
Язык : Russian
Default : Да
Forced : Нет

Аудио #2
Идентификатор : 3
Формат : AC-3
Формат/Информация : Audio Coding 3
Расширение режима : CM (complete main)
Параметр Endianness формата : Big
Идентификатор кодека : A_AC3
Продолжительность : 1 ч. 45 м.
Вид битрейта : Постоянный
Битрейт : 384 Кбит/сек
Каналы : 6 каналов
Расположение каналов : Front: L C R, Side: L R, LFE
Частота : 48,0 КГц
Битовая глубина : 16 бит
Метод сжатия : С потерями
Размер потока : 291 Мбайт (8%)
Заголовок : AC3 5.1 @ 384 kbps
Язык : English
Default : Нет
Forced : Нет

Меню
00:00:00.000 : en:Juanita the Bulltamer (Main Titles)
00:04:24.000 : en:Advice From Grandpa
00:08:55.000 : en:Fear of Flying
00:13:00.000 : en:Close Encounters of a Two-Legged Kind
00:16:09.000 : en:Breaking News
00:19:19.000 : en:He Might Be Dangerous
00:24:42.000 : en:I Know My Rights
00:29:16.000 : en:A Train To Nowhere
00:35:43.000 : en:An Evening At Kmart
00:40:58.000 : en:Laundered Money
00:45:49.000 : en:Meet Doctor Ben
00:50:27.000 : en:The Honeymooners
00:55:47.000 : en:Wedding Parties Collide
01:04:26.000 : en:Drowning In Lies
01:13:06.000 : en:I Know What Boys Like
01:21:52.000 : en:Two Husbands, One Bagel Shop
01:27:25.000 : en:you Must Be Proud Of Ben
01:33:46.000 : en:Eternity Can Wait
01:39:07.000 : en:Commitments Are Delightful Burdens
01:41:41.000 : en:End Credits


Силы природы скачать торрент


kino.freetor.icu



Скачать Силы природы через торрент https://pic1.kartinco.top/images/81/qvr7h.jpg Скачать, смотреть онлайн Силы природы бесплантно в хорошем качестве Описание: У героя этой картины, Бена, в запасе всего два дня, чтобы добраться из Нью-Йорка в городок Саванна, что в штате Джорджия, и ... 10 10 6
Торрент: Зарегистрирован [2015-01-08 13:09] · скачан: 50 раз
Статус: √ проверено
Размер: 3.74 GB
Как cкачать? Как скачать Силы природы через торрент | UTorrent

28-11-2019 20:33  

Отключить всю рекламу на сайте

    Дорогой пользователь! Огромная просьба, поблагодарите релизера, оцените раздачу и оставьте свои комментарий, если Вы скачали Силы природы через торрент бесплатно!
    Комментировать посты могут только пользователи прошедшие не сложную регистрацию
    Показать сообщения:    

    Силы природы через торрент
    Скачать бесплатно Силы природы
    Силы природы скачать торрент
    Силы природы смотреть онлайн
    Cкачать фильм Силы природы бесплатно
    Силы природы скачать торрент в хорошем качестве
    Силы природы смотреть онлайн бесплатно в хорошем качестве


    Вы не можете начинать темы
    Вы не можете отвечать на сообщения
    Вы не можете редактировать свои сообщения
    Вы не можете удалять свои сообщения
    Вы не можете голосовать в опросах
    Вы не можете прикреплять файлы к сообщениям
    Вы можете скачивать файлы