Присоединяйтесь к нам в Telegram!, здесь всегда актуальный адрес сайта, оперативная поддержка и многое другое!!

>

5.9

iTunes

7.4

iTunes

9.4

1 сезон

1

7.4

2 сезон

7.2

iTunes

7.3

1 сезон

13

6.1

iTunes

8.3

GOG

30

ULTIMATE

pack

9.9

Лицензия

ВАЖНО

ИГРА 18+

pack

7.3

RePack

MK11

7.7

RePack

jed

7.8

RePack

fifa19

8.5

RePack

RDR2

RePack

NEED FOR SPEED™ PAYBACK

5 сезон

9 сезон

Бесстыжие 9 сезон

Все сериалы

все сериалы на PB.wtf

RePack

FAR CRY 5

Anonymous, доброе утро, мы катастрофически не успеваем собрать деньги на оплату серверов, помогите нам пожалуйста 5,10,15р., для нас важна любая помощь . В качестве благодарности мы отключим Вам всю рекламу на сайте (укажите свой ник в строку Ваше имя)!

×
  
Magnet ссылка

Сальво / Salvo (Фабио Грассадония / Fabio Grassadonia, Антонио Пьяцца / Antonio Piazza) [2013, драма, мелодрама, криминал, WEB-DL 720p ) VO [МЕГАПЫХАРЬ] kino.freetor.icu

Сальво через торрент kino.freetor.icu

Размер: 3.56 GB | Добавлен: 6 лет 10 мес. назад | Торрент скачан:17 раз
Смотреть онлайн Сальво | Скачать    Ребята, помогите собрать деньги на оплату серверов!!!

12-01-2015 10:17 Сальво Скачать торрент  


Информация о фильме

Название: Сальво

Оригинальное название: Salvo

Год выхода: 2014

Страна: Италия, Франция

Студия: ARTE France Cinéma

Продолжительность: 01:49:58

Перевод: Любительский (одноголосый) закадровый [МегаПыхарь]

Жанр: Драма, мелодрама, криминал

Режиссеры: Фабио Грассадония, Антонио Пьяцца

В ролях: Салех Бакри, Луиджи Ло Кашио, Сара Серайокко, Марио Пупелла, Редуэн Бехаш



Описание:

Сицилия, Палермо. Киллер мафии не выполняет заказ до конца и оставляет в живых сестру своей жертвы, слепую девушку Риту. Он похищает ее и перевозит с места на место, но как только между ними возникают отношения, пара оказывается окруженной со всех сторон бандитами.









Файл
Качество: WEB-DL 720p
Формат: MKV
Видео кодек: AVC
Аудио кодек: AC3
Видео: MPEG-4 AVC, 3968 Кбит/с, 1280x530 , 23.976 кадра/сек
Звук: Русский (AC3, 2 ch, 192 Кбит/с), 48.0 KHz
Звук2: итальянский (AC3, 6 ch, 384 Кбит/с) , 48.0 KHz

Субтитры: Отсутствуют
General
Unique ID : 211820627858709784848843966575547929038 (0x9F5B2B43CB2E7A8A855185687C1651CE)
Complete name : D:\Торенты\Salvo.2014.L1.WEB-DL.720p.mkv
Format : Matroska
Format version : Version 2
File size : 3.56 GiB
Duration : 1h 49mn
Overall bit rate : 4 637 Kbps
Encoded date : UTC 2015-01-11 18:28:28
Writing application : mkvmerge v7.4.0 ('Circles') 64bit built on Dec 12 2014 12:19:56
Writing library : libebml v1.3.0 + libmatroska v1.4.1
_STATISTICS_WRITING_APP : mkvmerge v7.4.0 ('Circles') 64bit built on Dec 12 2014 12:19:56
_STATISTICS_WRITING_DATE_UT : 2015-01-11 18:28:28
_STATISTICS_TAGS : BPS DURATION NUMBER_OF_FRAMES NUMBER_OF_BYTES
DURATION : 01:49:58.176000000
NUMBER_OF_FRAMES : 206193
NUMBER_OF_BYTES : 158356224

Video
ID : 1
Format : AVC
Format/Info : Advanced Video Codec
Format profile : Main@L3.1
Format settings, CABAC : No
Format settings, ReFrames : 2 frames
Codec ID : V_MPEG4/ISO/AVC
Duration : 1h 49mn
Bit rate : 3 968 Kbps
Width : 1 280 pixels
Height : 530 pixels
Display aspect ratio : 2.40:1
Frame rate mode : Constant
Frame rate : 23.976 fps
Color space : YUV
Chroma subsampling : 4:2:0
Bit depth : 8 bits
Scan type : Progressive
Bits/(Pixel*Frame) : 0.244
Stream size : 3.05 GiB (86%)
Language : English
Default : Yes
Forced : No
Color primaries : BT.709
Transfer characteristics : BT.709
Matrix coefficients : BT.709
Color range : Limited

Audio #1
ID : 2
Format : AC-3
Format/Info : Audio Coding 3
Mode extension : CM (complete main)
Format settings, Endianness : Big
Codec ID : A_AC3
Duration : 1h 49mn
Bit rate mode : Constant
Bit rate : 192 Kbps
Channel(s) : 2 channels
Channel positions : Front: L R
Sampling rate : 48.0 KHz
Bit depth : 16 bits
Compression mode : Lossy
Stream size : 151 MiB (4%)
Default : Yes
Forced : Yes

Audio #2
ID : 3
Format : AC-3
Format/Info : Audio Coding 3
Mode extension : CM (complete main)
Format settings, Endianness : Big
Codec ID : A_AC3
Duration : 1h 49mn
Bit rate mode : Constant
Bit rate : 384 Kbps
Channel(s) : 6 channels
Channel positions : Front: L C R, Side: L R, LFE
Sampling rate : 48.0 KHz
Bit depth : 16 bits
Compression mode : Lossy
Stream size : 302 MiB (8%)
Language : Italian
Default : No
Forced : No

Menu
00:00:00.000 : en:The Killer
00:08:17.000 : en:Rita
00:17:04.000 : en:Captured
00:28:29.000 : en:Hideout
00:37:43.000 : en:Domicile
00:44:50.000 : en:The Boss
00:54:10.000 : en:The Prisoner
01:03:37.000 : en:Beatdown
01:12:02.000 : en:Catharsis
01:20:40.000 : en:Last Meal
01:30:25.000 : en:Escape
01:44:10.000 : en:Credits
Семплkino.freetor.icu



Скачать Сальво через торрент http://s020.radikal.ru/i702/1501/93/a2acdee9ff59.jpg Скачать, смотреть онлайн Сальво бесплантно в хорошем качестве Описание: Сицилия, Палермо. Киллер мафии не выполняет заказ до конца и оставляет в живых сестру своей жертвы, слепую девушку Риту. Он ... 10 10 2
Торрент: Зарегистрирован [2015-01-12 10:17] · скачан: 17 раз
Статус: T временная
Размер: 3.56 GB
Как cкачать? Как скачать Сальво через торрент | UTorrent

% Раздел Тема Автор DL S | L
Фильмы 2006-2008 [ 2.18 GB ] Мирный воин / Peaceful Warrior [2006 биография BDRip-AVC] MVO potroks Скачать
1 | 0
Релизы по Парсеру [Игры, Сериалы и Фильмы и другое...] [ 3.07 GB ] Мирный воин / Peaceful Warrior [2006 Германия BDRip-AVC] MVO + Original Eng + Sub Rus Eng sanekbest1 Скачать
1 | 0
Фильмы 2006-2008 [ 1.95 GB ] Мирный воин / Peaceful Warrior [2006 Германия биография WEB-DLRip] 2xMVO + Original dexter lex Скачать
1 | 0
Фильмы 2013 (Звук TS, Cam, VO, DVO) [ 2.03 GB ] Сальво / Salvo [2013 Италия WEB-DLRip) VO [МЕГАПЫХАРЬ] GEKADOL Скачать
1 | 0
T Фильмы 2014 (Звук TS, Cam, VO, DVO) [ 1.33 GB ] Дом призраков / Haunted [ 2014 HDRip ] VO GEKADOL Скачать
1 | 0
Фильмы 2006-2008 [ 746 MB ] Мирный воин / Peaceful Warrior [2006 Германия Мело Спорт DVDRip] MVO телеканал ТВ3 -=Cherry=- Скачать
1 | 0

28-11-2019 20:33  

Отключить всю рекламу на сайте

    Дорогой пользователь! Огромная просьба, поблагодарите релизера, оцените раздачу и оставьте свои комментарий, если Вы скачали Сальво через торрент бесплатно!
    Комментировать посты могут только пользователи прошедшие не сложную регистрацию
    Показать сообщения:    

    Сальво через торрент
    Скачать бесплатно Сальво
    Сальво скачать торрент
    Сальво смотреть онлайн
    Cкачать фильм Сальво бесплатно
    Сальво скачать торрент в хорошем качестве
    Сальво смотреть онлайн бесплатно в хорошем качестве


    Вы не можете начинать темы
    Вы не можете отвечать на сообщения
    Вы не можете редактировать свои сообщения
    Вы не можете удалять свои сообщения
    Вы не можете голосовать в опросах
    Вы не можете прикреплять файлы к сообщениям
    Вы можете скачивать файлы