Присоединяйтесь к нам в Telegram!, здесь всегда актуальный адрес сайта, оперативная поддержка и многое другое!!

>

5.9

iTunes

7.4

iTunes

9.4

1 сезон

1

7.4

2 сезон

7.2

iTunes

7.3

1 сезон

13

6.1

iTunes

8.3

Пиратка

30

ULTIMATE

pack

9.9

Лицензия

ВАЖНО

ИГРА 18+

pack

7.3

RePack

MK11

7.7

RePack

jed

7.8

RePack

fifa19

8.5

RePack

RDR2

RePack

NEED FOR SPEED™ PAYBACK

5 сезон

9 сезон

Бесстыжие 9 сезон

Все сериалы

все сериалы на PB.wtf

RePack

FAR CRY 5

Anonymous, доброй ночи, мы катастрофически не успеваем собрать деньги на оплату серверов, помогите нам пожалуйста 5,10,15р., для нас важна любая помощь . В качестве благодарности мы отключим Вам всю рекламу на сайте (укажите свой ник в строку Ваше имя)!

×
  
Magnet ссылка

88 / 88 (Эйприл Маллен ) [2015, боевик, триллер, WEB-DL 720p, Любительский (двухголосый) kino.freetor.icu

88 через торрент kino.freetor.icu

Размер: 2.94 GB | Добавлен: 6 лет 10 мес. назад | Торрент скачан:153 раза
Смотреть онлайн 88 | Скачать    Ребята, помогите собрать деньги на оплату серверов!!!

18-01-2015 12:23 88 Скачать торрент  


88 / 88

«There are two sides to every story»

Год выпуска:2015
Страна:Канада
Жанр:боевик, триллер
Продолжительность: 01:28:35
Перевод:Любительское (двухголосое) [МЕГАПЫХАРЬ и Элис], перевод [МЕГАПЫХАРЬ и Ворон]
Субтитры: русские, английские,
Режиссер:Эйприл Маллен
В ролях:

Кэтрин Изабель (Gwen), Кристофер Ллойд (Cyrus), Кайл Шмид (Aster), Джесси МакКартни (Winks), Майкл Айронсайд (Sheriff Knowles), Тим Дойрон (Ty), Эйприл Маллен (Lemmy), Энтони Юлк (Jessop), Мики Мун (Izzy), Алан С. Петерсон (Bob), Джон Тенч (Roy), Джон Уайт (Marvin)
  • Описание:
    Молодая девушка приходит в себя в придорожной закусочной, не имея ни малейшего понятия, кто она и как там оказалась. Не успев в этом разобраться, она оказывается в самой гуще непонятных для неё событий. И она вынуждена , пробиваясь сквозь пули и кровь, по крупицам восстанавливать свою память...


    Качество: WEB-DL 720p
    Формат:MKV
    Видео кодек: AVC
    Аудио кодек:AC3
    Видео: AVC, 1280x528 (2.40:1), 4082 kbps, 23,976 fps, 0,252 bpp
    Аудио №1: русский / AC3 / 2.0 / 48 kHz / 192 kbps / 16 bit ||
    Аудио №2: английский / AC3 / 5.1 / 48 kHz / 384 kbps / 16 bit
    Навигация по главам: есть

    Код:

    General
    Unique ID                                : 213154558680307393152675817812020088782 (0xA05C1321CCEEF3A899584FD22456CFCE)
    Complete name                            : D:\Торенты\88.2015.WEB-DL.720p.CINEMANIA.mkv
    Format                                   : Matroska
    Format version                           : Version 4 / Version 2
    File size                                : 2.94 GiB
    Duration                                 : 1h 28mn
    Overall bit rate                         : 4 753 Kbps
    Movie name                               : Release Group CINEMANIA
    Encoded date                             : UTC 2015-01-18 11:04:22
    Writing application                      : mkvmerge v7.5.0 ('Glass Culture') 64bit built on Jan  4 2015 16:48:44
    Writing library                          : libebml v1.3.1 + libmatroska v1.4.2

    Video
    ID                                       : 1
    Format                                   : AVC
    Format/Info                              : Advanced Video Codec
    Format profile                           : Main@L3.1
    Format settings, CABAC                   : No
    Format settings, ReFrames                : 2 frames
    Codec ID                                 : V_MPEG4/ISO/AVC
    Duration                                 : 1h 28mn
    Bit rate                                 : 4 083 Kbps
    Width                                    : 1 280 pixels
    Height                                   : 528 pixels
    Display aspect ratio                     : 2.40:1
    Frame rate                               : 23.976 fps
    Color space                              : YUV
    Chroma subsampling                       : 4:2:0
    Bit depth                                : 8 bits
    Scan type                                : Progressive
    Bits/(Pixel*Frame)                       : 0.252
    Stream size                              : 2.53 GiB (86%)
    Title                                    : Release Group CINEMANIA
    Language                                 : English
    Default                                  : Yes
    Forced                                   : No
    Color primaries                          : BT.709-5, BT.1361, IEC 61966-2-4, SMPTE RP177
    Transfer characteristics                 : BT.709-5, BT.1361
    Matrix coefficients                      : BT.709-5, BT.1361, IEC 61966-2-4 709, SMPTE RP177

    Audio #1
    ID                                       : 2
    Format                                   : AC-3
    Format/Info                              : Audio Coding 3
    Mode extension                           : CM (complete main)
    Codec ID                                 : A_AC3
    Duration                                 : 1h 28mn
    Bit rate mode                            : Constant
    Bit rate                                 : 192 Kbps
    Channel(s)                               : 2 channels
    Channel positions                        : Front: L R
    Sampling rate                            : 48.0 KHz
    Bit depth                                : 16 bits
    Compression mode                         : Lossy
    Stream size                              : 122 MiB (4%)
    Title                                    : МЕГАПЫХАРЬ и Элис
    Language                                 : Russian
    Default                                  : Yes
    Forced                                   : Yes

    Audio #2
    ID                                       : 3
    Format                                   : AC-3
    Format/Info                              : Audio Coding 3
    Mode extension                           : CM (complete main)
    Codec ID                                 : A_AC3
    Duration                                 : 1h 28mn
    Bit rate mode                            : Constant
    Bit rate                                 : 384 Kbps
    Channel(s)                               : 6 channels
    Channel positions                        : Front: L C R, Side: L R, LFE
    Sampling rate                            : 48.0 KHz
    Bit depth                                : 16 bits
    Compression mode                         : Lossy
    Stream size                              : 243 MiB (8%)
    Language                                 : English
    Default                                  : No
    Forced                                   : No

    Text #1
    ID                                       : 4
    Format                                   : UTF-8
    Codec ID                                 : S_TEXT/UTF8
    Codec ID/Info                            : UTF-8 Plain Text
    Language                                 : Russian
    Default                                  : Yes
    Forced                                   : Yes

    Text #2
    ID                                       : 5
    Format                                   : UTF-8
    Codec ID                                 : S_TEXT/UTF8
    Codec ID/Info                            : UTF-8 Plain Text
    Language                                 : English
    Default                                  : No
    Forced                                   : No

    Menu
    00:00:00.000                             : en:1
    00:04:05.000                             : en:2
    00:09:58.000                             : en:3
    00:18:26.000                             : en:4
    00:21:26.000                             : en:5
    00:28:03.000                             : en:6
    00:34:10.000                             : en:7
    00:40:07.000                             : en:8
    00:45:38.000                             : en:9
    00:50:51.000                             : en:10
    00:54:47.000                             : en:11
    01:01:44.000                             : en:12
    01:05:52.000                             : en:13
    01:10:47.000                             : en:14
    01:16:02.000                             : en:15
    01:20:57.000                             : en:16


    Скриншоты:

    Каталог Новинок (Фильмы-трейлеры, Игры, Сериалы, Мультфильмы)

    © Оформление by Ворон
    kino.freetor.icu



  • Скачать 88 через торрент https://pic1.kartinco.top/images/61/ordi9.jpg Скачать, смотреть онлайн 88 бесплантно в хорошем качестве Описание:Молодая девушка приходит в себя в придорожной закусочной, не имея ни малейшего понятия, кто она и как там оказалась. Не успев в ... 8.5 10 6
    Торрент: Зарегистрирован [2015-01-18 12:23] · скачан: 153 раз
    Статус: T временная
    Размер: 2.94 GB
    Как cкачать? Как скачать 88 через торрент | UTorrent

    % Раздел Тема Автор DL S | L
    Фильмы до 2000 г. [ 1.16 GB ] Чужие среди нас  / They Live [1988 DVDRip] feldeger Скачать
    1 | 0
    Архив (Зарубежный Rock) [ 801 MB ] ACDC - Дискография - 1976 - 1988 MP3 320 kbps uklopp Скачать
    1 | 0
    Фильмы до 2000 г. [ 1.45 GB ] Красная жара / Red Heat [1988 DVDRip Пиратка] Артронах Скачать
    1 | 0
    Фильмографии [ 52.04 GB ] Стивен Сигал. Фильмография 1 / Steven Seagal. Filmography 1 [1988-2010; боевые искусства ; DVDRip] nobana Скачать
    2 | 0
    Зарубежные сериалы [ 15.05 GB ] Все ненавидят Криса 4 Сезона / Everybody Hates Chris [2005-2009 TVRip Пиратка] toninfs Скачать
    1 | 0
    Кино СССР [ 3.28 GB ] Узник замка Иф / Uznik zamka If [1988 история ... DVDRip лицензия] Nolrav Скачать
    1 | 1
    Фильмы до 2000 г. [ 1.37 GB ] Эльвира - Повелительница тьмы / Elvira Mistress of the Dark [1988 DVDRip] Lindoza Скачать
    1 | 0

    28-11-2019 20:33  

    Отключить всю рекламу на сайте

      Дорогой пользователь! Огромная просьба, поблагодарите релизера, оцените раздачу и оставьте свои комментарий, если Вы скачали 88 через торрент бесплатно!
      Комментировать посты могут только пользователи прошедшие не сложную регистрацию
      Показать сообщения:    

      88 через торрент
      Скачать бесплатно 88
      88 скачать торрент
      88 смотреть онлайн
      Cкачать фильм 88 бесплатно
      88 скачать торрент в хорошем качестве
      88 смотреть онлайн бесплатно в хорошем качестве


      Вы не можете начинать темы
      Вы не можете отвечать на сообщения
      Вы не можете редактировать свои сообщения
      Вы не можете удалять свои сообщения
      Вы не можете голосовать в опросах
      Вы не можете прикреплять файлы к сообщениям
      Вы можете скачивать файлы