Присоединяйтесь к нам в Telegram!, здесь всегда актуальный адрес сайта, оперативная поддержка и многое другое!!

>

5.9

iTunes

7.4

iTunes

9.4

1 сезон

1

7.4

2 сезон

7.2

iTunes

7.3

1 сезон

13

6.1

iTunes

8.3

Пиратка

30

ULTIMATE

pack

9.9

Лицензия

ВАЖНО

ИГРА 18+

pack

7.3

RePack

MK11

7.7

RePack

jed

7.8

RePack

fifa19

8.5

RePack

RDR2

RePack

NEED FOR SPEED™ PAYBACK

5 сезон

9 сезон

Бесстыжие 9 сезон

Все сериалы

все сериалы на PB.wtf

RePack

FAR CRY 5

Anonymous, доброй ночи, мы катастрофически не успеваем собрать деньги на оплату серверов, помогите нам пожалуйста 5,10,15р., для нас важна любая помощь . В качестве благодарности мы отключим Вам всю рекламу на сайте (укажите свой ник в строку Ваше имя)!

×
  
Magnet ссылка

Против солнца / Against the Sun (Брайан Питер Фальк ) [2015, приключения, WEB-DL 720p, Любительский (одноголосый) [den904] kino.freetor.icu

Против солнца через торрент kino.freetor.icu

Размер: 3.28 GB | Добавлен: 6 лет 10 мес. назад | Торрент скачан:170 раз
Смотреть онлайн Против солнца | Скачать    Ребята, помогите собрать деньги на оплату серверов!!!

21-01-2015 13:03 Против солнца Скачать торрент  


Против солнца / Against the Sun


Год выпуска:2015
Страна: США
Жанр:приключения
Продолжительность:01:39:25
Перевод: Любительский (одноголосый) [den904]
Субтитры: русские, английские,
Режиссер:Брайан Питер Фальк

  • В ролях:

    Том Фелтон (Tony Pastula), Гаррет Диллахант (Harold Dixon), Джейк Эйбел (Gene Aldrich), Надя Парра (Frances)
  • Описание:
    Одна из самых страшных историй Второй мировой войны, три пилота американских ВВС вынуждены выживать после крушения самолёта в южной части Тихого Океана. Имея только небольшой спасательный плот, без еды, воды и вспомогательных материалов, трио должно полагаться на самих себя, чтобы пережить голод, шторма и атаки акул, и привести свой маленький плот в безопасное место.

  • Мировая премьера:23 января 2015

    Качество: WEB-DL 720p
    Формат:MKV
    Видео кодек: AVC
    Аудио кодек:AC3
    Видео: AVC, 1280x720 (16:9), 4058 kbps, 23,976 fps, 0,184 bpp
    Аудио №1: русский / AC3 / 2.0 / 48 kHz / 192 kbps / 16 bit ||
    Аудио №2: английский / AC3 / 5.1 / 48 kHz / 384 kbps / 16 bit
    Навигация по главам: есть


    Код:

    General
    Unique ID                                : 185630193632259994491543414046257995184 (0x8BA713295C8DF5A58737029B82365DB0)
    Complete name                            : D:\Торенты\Against.the.Sun.2014.WEB-DL.720p.CINEMANIA.mkv
    Format                                   : Matroska
    Format version                           : Version 4 / Version 2
    File size                                : 3.28 GiB
    Duration                                 : 1h 39mn
    Overall bit rate                         : 4 729 Kbps
    Movie name                               : Release Group CINEMANIA
    Encoded date                             : UTC 2015-01-21 12:47:10
    Writing application                      : mkvmerge v7.5.0 ('Glass Culture') 64bit built on Jan  4 2015 16:48:44
    Writing library                          : libebml v1.3.1 + libmatroska v1.4.2

    Video
    ID                                       : 1
    Format                                   : AVC
    Format/Info                              : Advanced Video Codec
    Format profile                           : High@L3.1
    Format settings, CABAC                   : No
    Format settings, ReFrames                : 2 frames
    Codec ID                                 : V_MPEG4/ISO/AVC
    Duration                                 : 1h 39mn
    Bit rate                                 : 4 059 Kbps
    Width                                    : 1 280 pixels
    Height                                   : 720 pixels
    Display aspect ratio                     : 16:9
    Frame rate                               : 23.976 fps
    Color space                              : YUV
    Chroma subsampling                       : 4:2:0
    Bit depth                                : 8 bits
    Scan type                                : Progressive
    Bits/(Pixel*Frame)                       : 0.184
    Stream size                              : 2.82 GiB (86%)
    Title                                    : Release Group CINEMANIA
    Language                                 : English
    Default                                  : Yes
    Forced                                   : No
    Color primaries                          : BT.709-5, BT.1361, IEC 61966-2-4, SMPTE RP177
    Transfer characteristics                 : BT.709-5, BT.1361
    Matrix coefficients                      : BT.709-5, BT.1361, IEC 61966-2-4 709, SMPTE RP177

    Audio #1
    ID                                       : 2
    Format                                   : AC-3
    Format/Info                              : Audio Coding 3
    Mode extension                           : CM (complete main)
    Codec ID                                 : A_AC3
    Duration                                 : 1h 39mn
    Bit rate mode                            : Constant
    Bit rate                                 : 192 Kbps
    Channel(s)                               : 2 channels
    Channel positions                        : Front: L R
    Sampling rate                            : 48.0 KHz
    Bit depth                                : 16 bits
    Compression mode                         : Lossy
    Stream size                              : 137 MiB (4%)
    Title                                    : Антон Агапов
    Language                                 : Russian
    Default                                  : Yes
    Forced                                   : Yes

    Audio #2
    ID                                       : 3
    Format                                   : AC-3
    Format/Info                              : Audio Coding 3
    Mode extension                           : CM (complete main)
    Codec ID                                 : A_AC3
    Duration                                 : 1h 39mn
    Bit rate mode                            : Constant
    Bit rate                                 : 384 Kbps
    Channel(s)                               : 6 channels
    Channel positions                        : Front: L C R, Side: L R, LFE
    Sampling rate                            : 48.0 KHz
    Bit depth                                : 16 bits
    Compression mode                         : Lossy
    Stream size                              : 273 MiB (8%)
    Language                                 : English
    Default                                  : No
    Forced                                   : No

    Text #1
    ID                                       : 4
    Format                                   : UTF-8
    Codec ID                                 : S_TEXT/UTF8
    Codec ID/Info                            : UTF-8 Plain Text
    Language                                 : Russian
    Default                                  : Yes
    Forced                                   : Yes

    Text #2
    ID                                       : 5
    Format                                   : UTF-8
    Codec ID                                 : S_TEXT/UTF8
    Codec ID/Info                            : UTF-8 Plain Text
    Language                                 : English
    Default                                  : No
    Forced                                   : No

    Menu
    00:00:00.000                             : en:Chapter 1
    00:13:08.000                             : en:Chapter 2
    00:24:00.000                             : en:Chapter 3
    00:33:30.000                             : en:Chapter 4
    00:43:33.000                             : en:Chapter 5
    00:49:44.000                             : en:Chapter 6
    01:00:16.000                             : en:Chapter 7
    01:13:50.000                             : en:Chapter 8
    01:21:50.000                             : en:Chapter 9
    01:34:36.000                             : en:End Credits

    Скриншоты:

    Каталог Новинок (Фильмы-трейлеры, Игры, Сериалы, Мультфильмы)

    © Оформление by Ворон
    kino.freetor.icu



  • Скачать Против солнца через торрент https://pic1.kartinco.top/images/61/ordi9.jpg Скачать, смотреть онлайн Против солнца бесплантно в хорошем качестве Описание:Одна из самых страшных историй Второй мировой войны, три пилота американских ВВС вынуждены выживать после крушения самолёта в ... 8.9 10 8
    Торрент: Зарегистрирован [2015-01-21 13:03] · скачан: 170 раз
    Статус: T временная
    Размер: 3.28 GB
    Как cкачать? Как скачать Против солнца через торрент | UTorrent

    % Раздел Тема Автор DL S | L
    T Фильмы 2015 (Звук TS, Cam, VO, DVO) [ 1.29 GB ] Против солнца / Against the Sun [2015 WEB-DLRip Любительский [den904] Ворон Скачать
    1 | 0

    28-11-2019 20:33  

    Отключить всю рекламу на сайте

    08-02-2015 12:41 Против солнца Скачать торрент  

    Не подскажите когда можно ожидать лицензионную копию фильма? kino.freetor.icu



      Дорогой пользователь! Огромная просьба, поблагодарите релизера, оцените раздачу и оставьте свои комментарий, если Вы скачали Против солнца через торрент бесплатно!
      Комментировать посты могут только пользователи прошедшие не сложную регистрацию
      Показать сообщения:    

      Против солнца через торрент
      Скачать бесплатно Против солнца
      Против солнца скачать торрент
      Против солнца смотреть онлайн
      Cкачать фильм Против солнца бесплатно
      Против солнца скачать торрент в хорошем качестве
      Против солнца смотреть онлайн бесплатно в хорошем качестве


      Вы не можете начинать темы
      Вы не можете отвечать на сообщения
      Вы не можете редактировать свои сообщения
      Вы не можете удалять свои сообщения
      Вы не можете голосовать в опросах
      Вы не можете прикреплять файлы к сообщениям
      Вы можете скачивать файлы