Присоединяйтесь к нам в Telegram!, здесь всегда актуальный адрес сайта, оперативная поддержка и многое другое!!

>

5.9

iTunes

7.4

iTunes

9.4

1 сезон

1

7.4

2 сезон

7.2

iTunes

7.3

iTunes

13

6.1

iTunes

8.3

Пиратка

30

ULTIMATE

pack

9.9

Лицензия

ВАЖНО

ИГРА 18+

pack

7.3

RePack

MK11

7.7

RePack

jed

7.8

RePack

fifa19

8.5

RePack

RDR2

RePack

NEED FOR SPEED™ PAYBACK

5 сезон

9 сезон

Бесстыжие 9 сезон

Все сериалы

все сериалы на PB.wtf

RePack

FAR CRY 5

Anonymous, доброе утро, мы катастрофически не успеваем собрать деньги на оплату серверов, помогите нам пожалуйста 5,10,15р., для нас важна любая помощь . В качестве благодарности мы отключим Вам всю рекламу на сайте (укажите свой ник в строку Ваше имя)!

×
  
Magnet ссылка

Части тела / Private Parts (Бетти Томас / Betty Thomas) [1997 г., комедия, биография, HDTVRip 720p] DVO + AVO Санаев kino.freetor.icu

Части тела через торрент kino.freetor.icu

Размер: 4.74 GB | Добавлен: 6 лет 9 мес. назад | Торрент скачан:43 раза
Смотреть онлайн Части тела | Скачать    Ребята, помогите собрать деньги на оплату серверов!!!

09-02-2015 19:00 Части тела Скачать торрент  

Части тела / Private Parts
Год выпуска: 1997
Страна: США
Жанр: комедия, биография
Продолжительность: 1:49:00
Перевод: Профессиональный двухголосый; авторский одноголосый Павла Санаева
Субтитры: есть (русские)

Режиссер: Бетти Томас / Betty Thomas

В ролях: Хауард Стерн, Робин Куиверс, Мэри МакКормэк, Фред Норрис, Пол Джаматти, Гэри Делл'Абате

Описание: Говард Стерн – долговязый парень, которому отказала в свидании даже… слепая девушка, теперь самый известный в Америке скандалист! Для него нет запретных тем, он отметает условности и не признает авторитетов. Любитель сюрпризов и генератор сумасшедших идей, доводящий людей до истерики: одних от смеха, других - от злости!

Качество: HDTVRip 720p
Формат: MKV
Видео кодек: H.264
Аудио кодек: AC3
Видео: 1280x720; 23.976 fps, 5232 Kbps
Аудио#1: Dolby AC3; Rus; 48000Hz; 6ch; 384kbps [закадровый перевод]
Аудио#2: Dolby AC3; Rus; 48000Hz; 2ch; 192kbps [Павел Санаев]
Аудио#3: Dolby AC3; Eng; 48000Hz; 2ch; 384kbps [оригинал]
General
Complete name : E:\Private Parts\Private.Parts.HDTV.720p.Rus.Eng.mkv
Format : Matroska
File size : 4.74 GiB
Duration : 1h 49mn
Overall bit rate : 6 194 Kbps
Encoded date : UTC 2010-05-17 13:01:02
Writing application : mkvmerge v2.4.0 ('Fumbling Towards Ecstasy') built on Oct 11 2008 20:13:15
Writing library : libebml v0.7.7 + libmatroska v0.8.1

Video
ID : 1
Format : AVC
Format/Info : Advanced Video Codec
Format profile : High@L3.1
Format settings, CABAC : Yes
Format settings, ReFrames : 4 frames
Muxing mode : Container profile=Unknown@3.1
Codec ID : V_MPEG4/ISO/AVC
Duration : 1h 49mn
Bit rate : 5 111 Kbps
Nominal bit rate : 5 232 Kbps
Width : 1 280 pixels
Height : 720 pixels
Display aspect ratio : 16:9
Frame rate : 23.976 fps
Resolution : 24 bits
Colorimetry : 4:2:0
Scan type : Progressive
Bits/(Pixel*Frame) : 0.231
Stream size : 3.90 GiB (82%)
Writing library : x264 core 92 r1510 33d382a
Encoding settings : cabac=1 / ref=5 / deblock=1:-2:-2 / analyse=0x3:0x133 / me=umh / subme=9 / psy=1 / psy_rd=1.00:0.00 / mixed_ref=1 / me_range=24 / chroma_me=1 / trellis=2 / 8x8dct=1 / cqm=0 / deadzone=21,11 / fast_pskip=0 / chroma_qp_offset=-2 / threads=6 / sliced_threads=0 / nr=0 / decimate=0 / interlaced=0 / constrained_intra=0 / bframes=6 / b_pyramid=1 / b_adapt=2 / b_bias=0 / direct=3 / wpredb=1 / wpredp=2 / keyint=250 / keyint_min=25 / scenecut=40 / intra_refresh=0 / rc=2pass / mbtree=0 / bitrate=5232 / ratetol=2.0 / qcomp=0.60 / qpmin=10 / qpmax=51 / qpstep=4 / cplxblur=20.0 / qblur=0.5 / ip_ratio=1.40 / pb_ratio=1.30 / aq=1:1.00
Language : English

Audio #1
ID : 2
Format : AC-3
Format/Info : Audio Coding 3
Codec ID : A_AC3
Duration : 1h 49mn
Bit rate mode : Constant
Bit rate : 384 Kbps
Channel(s) : 6 channels
Channel positions : Front: L C R, Surround: L R, LFE
Sampling rate : 48.0 KHz
Stream size : 301 MiB (6%)
Title : Zakadr
Language : Russian

Audio #2
ID : 3
Format : AC-3
Format/Info : Audio Coding 3
Codec ID : A_AC3
Duration : 1h 49mn
Bit rate mode : Constant
Bit rate : 192 Kbps
Channel(s) : 2 channels
Channel positions : L R
Sampling rate : 48.0 KHz
Stream size : 150 MiB (3%)
Title : Sanaev
Language : Russian

Audio #3
ID : 4
Format : AC-3
Format/Info : Audio Coding 3
Codec ID : A_AC3
Duration : 1h 49mn
Bit rate mode : Constant
Bit rate : 384 Kbps
Channel(s) : 2 channels
Channel positions : L R
Sampling rate : 48.0 KHz
Video delay : 32ms
Stream size : 301 MiB (6%)
Title : English
Language : English

Text
ID : 5
Format : UTF-8
Codec ID : S_TEXT/UTF8
Codec ID/Info : UTF-8 Plain Text
Title : Subs
Language : Russian



kino.freetor.icu



Скачать Части тела через торрент https://pic1.kartinco.top/images/9/u9zlc.jpg Скачать, смотреть онлайн Части тела бесплантно в хорошем качестве Описание: Говард Стерн – долговязый парень, которому отказала в свидании даже… слепая девушка, теперь самый известный в Америке скандалист! ... 8.7 10 7
Info! Золотая раздача, скачанное не засчитывается.
Торрент: Зарегистрирован [2015-02-09 19:00] · скачан: 43 раз
Статус: √ проверено
Размер: 4.74 GB
Как cкачать? Как скачать Части тела через торрент | UTorrent

% Раздел Тема Автор DL S | L
Фильмы до 2000 г. [ 2.05 GB ] Части тела / Private Parts [1997 биография HDRip лицензия ] AVO + DVO + Orig + sub ahm77 Скачать
1 | 0


Последний раз редактировалось: kalyan82 (2015-02-09 19:38), всего редактировалось 2 раз(а)

28-11-2019 20:33  

Отключить всю рекламу на сайте

09-02-2015 19:05 Части тела Скачать торрент  

рекомендую перевод Санаева!kino.freetor.icu



09-02-2015 19:20 Части тела Скачать торрент  

Предоставьте текстовый отчёт MediaInfo
http://pb.wtf/topic/127047

Цитата:

Части тела / Private Parts (Бетти Томас / Betty Thomas) [ г., комедия, биография, HDTVRip 720p, Профессиональный двухголосый]

пропустили год выхода и в заголовке, и в оформлении.
В заголовке так же укажите о присутствии авторского озвучания. Сделать это можно например так:

Код:

......HDTVRip 720p] DVO + AVO [Санаев]

Об исправлении сообщите в лс со ссылкой на раздачу.
kino.freetor.icu





Последний раз редактировалось: Messa-fan (2015-02-09 20:12), всего редактировалось 2 раз(а)

10-02-2015 06:14 Части тела Скачать торрент  

это однозначно 10!! лучший из комедий биографий)))) и не надо было народ скринами пугать- тема сисег не раскрыта , фильм не про это!kino.freetor.icu



10-02-2015 14:55 Части тела Скачать торрент  

kalyan82 писал(а):

рекомендую перевод Санаева!

Поддерживаю, Павел тут отлично перевел!kino.freetor.icu



    Дорогой пользователь! Огромная просьба, поблагодарите релизера, оцените раздачу и оставьте свои комментарий, если Вы скачали Части тела через торрент бесплатно!
    Комментировать посты могут только пользователи прошедшие не сложную регистрацию
    Показать сообщения:    

    Части тела через торрент
    Скачать бесплатно Части тела
    Части тела скачать торрент
    Части тела смотреть онлайн
    Cкачать фильм Части тела бесплатно
    Части тела скачать торрент в хорошем качестве
    Части тела смотреть онлайн бесплатно в хорошем качестве


    Вы не можете начинать темы
    Вы не можете отвечать на сообщения
    Вы не можете редактировать свои сообщения
    Вы не можете удалять свои сообщения
    Вы не можете голосовать в опросах
    Вы не можете прикреплять файлы к сообщениям
    Вы можете скачивать файлы