Anonymous, доброй ночи, присоединяйтесь к нам в Telegram!, здесь всегда актуальный адрес сайта, оперативная поддержка и многое другое!

>

5.6

iTunes

7.4

iTunes

5.7

MVO

1

7.7

1 сезон

6.8

iTunes

7.3

1 сезон

13

6.7

1 сезон

8.3

RePack

30

ULTIMATE

pack

9.9

Лицензия

ВАЖНО

ИГРА 18+

pack

7.3

RePack

MK11

7.7

RePack

jed

7.8

RePack

fifa19

8.5

RePack

RDR2

RePack

NEED FOR SPEED™ PAYBACK

4 сезон

9 сезон

Бесстыжие 9 сезон

Все сериалы

все сериалы на PB.wtf

RePack

FAR CRY 5

Anonymous, доброй ночи, мы катастрофически не успеваем собрать деньги на оплату серверов, помогите нам пожалуйста 5,10,15р., для нас важна любая помощь . В качестве благодарности мы отключим Вам всю рекламу на сайте (укажите свой ник в строку Ваше имя)!

×
  
Magnet ссылка

Капоне / Capone (Стив Карвер ) [1975, драма, криминал, биография, BDRip, Профессиональный многоголосый [Лицензия] kino.freetor.icu

Капоне через торрент kino.freetor.icu

Размер: 1.44 GB | Добавлен: 6 лет 8 мес. назад | Торрент скачан:205 раз
Смотреть онлайн Капоне | Скачать    Ребята, помогите собрать деньги на оплату серверов!!!

10-02-2015 19:24 Капоне Скачать торрент  


Капоне / Capone
«From Underworld To Empire»

ИНФОРМАЦИЯ:
Год выпуска:1975
Страна: США
Жанр:драма, криминал, биография
Продолжительность01:41:18
Перевод:Профессиональный многоголосый [Лицензия]
Режиссер:Стив Карвер

В Ролях:


Бен Газзара (Al Capone), Гарри Гуардино (Johnny Torrio), Сьюзан Блейкли (Iris Crawford), Сильвестр Сталлоне (Frank Nitti), Джон Кассаветис (Frankie Yale), Фрэнк Кампанелла (Big Jim Colosimo), Джон Орхард (Dion O'Banion), Кармен Ардженциано (Jack McGurn), Джордж Чандлер (Robert E. Crowe), Джон Дэвис Чэндлер (Hymie Weiss), Ройал Дэно (Anton J. Cermak), Джо Де Николя (Charles Fischetti)

ОПИСАНИЕ:
В 1918 году крупнейшим мафиози был Торрио. Он учил Капоне общаться с политиками, судьями и адвокатами, учил его красиво говорить, одеваться и правильно вести себя в высшем обществе, чтобы никто не мог заподозрить, что он - из шпаны.
Постепенно Капоне приспособился к своим новым обязанностям и стал правой рукой Торрио. В городе учащались вооруженные мафиозные разборки. Соперники Торрио вынуждали его поделиться бизнесом. Капоне не мог с этим смириться и, понимая, что босса не переубедить, решил убить его и возглавить его мафиозную организацию.


ТЕХ.ДАННЫЕ:
Качество: BDRip
Формат:AVI
Видео кодек: XviD
Аудио кодек:AC3
Видео: XviD, 704x384 (16:9), 1580 kbps, 23,976 fps, 0,231 bpp
Аудио: AC3 / 5.1 / 48 kHz / 448 kbps / 16 bit

Код:

General
Complete name                            : D:\Торенты\Kapone.1975.Xvid.BDRip-MediaClub.avi
Format                                   : AVI
Format/Info                              : Audio Video Interleave
File size                                : 1.44 GiB
Duration                                 : 1h 41mn
Overall bit rate                         : 2 037 Kbps
Movie name                               : = MediaClub = rip by Painter
Writing application                      : VirtualDubMod 1.5.10.3 (build 2550/release)
Writing library                          : VirtualDubMod build 2550/release

Video
ID                                       : 0
Format                                   : MPEG-4 Visual
Format profile                           : Advanced Simple@L5
Format settings, BVOP                    : 2
Format settings, QPel                    : No
Format settings, GMC                     : No warppoints
Format settings, Matrix                  : Custom
Codec ID                                 : XVID
Codec ID/Hint                            : XviD
Duration                                 : 1h 41mn
Bit rate                                 : 1580 Kbps
Width                                    : 704 pixels
Height                                   : 384 pixels
Display aspect ratio                     : 16:9
Frame rate                               : 23.976 fps
Color space                              : YUV
Chroma subsampling                       : 4:2:0
Bit depth                                : 8 bits
Scan type                                : Progressive
Compression mode                         : Lossy
Bits/(Pixel*Frame)                       : 0.231
Stream size                              : 1.06 GiB (74%)
Writing library                          : XviD 73

Audio
ID                                       : 1
Format                                   : AC-3
Format/Info                              : Audio Coding 3
Mode extension                           : CM (complete main)
Codec ID                                 : 2000
Duration                                 : 1h 41mn
Bit rate mode                            : Constant
Bit rate                                 : 448 Kbps
Channel(s)                               : 6 channels
Channel positions                        : Front: L C R, Side: L R, LFE
Sampling rate                            : 48.0 KHz
Bit depth                                : 16 bits
Compression mode                         : Lossy
Stream size                              : 325 MiB (22%)
Alignment                                : Split accross interleaves

Скриншоты:


© Оформление by Ворон
kino.freetor.icu



Скачать Капоне через торрент https://pic1.kartinco.top/images/61/ordi9.jpg Скачать, смотреть онлайн Капоне бесплантно в хорошем качестве Е:В 1918 году крупнейшим мафиози был Торрио. Он учил Капоне общаться с политиками, судьями и адвокатами, учил его красиво говорить, ... 10 10 4
Торрент: Зарегистрирован [2015-02-10 19:24] · скачан: 205 раз
Статус: √ проверено
Размер: 1.44 GB
Как cкачать? Как скачать Капоне через торрент | UTorrent

% Раздел Тема Автор DL S | L
Фильмы 2019-2020 [DVDrip, WEB-DLRip, HDrip] (DUB, MVO) [ 1.41 GB ] Капоне. Лицо со шрамом / Capone [2020 биография BDRip] - Twi7ter Скачать
3 | 0
Фильмы 2019-2020 [DVDrip, WEB-DLRip, HDrip] (DUB, MVO) [ 1.44 GB ] Капоне. Лицо со шрамом / Capone [2020 биография HDRip-AVC] от MediaBit Lithuania Скачать
1 | 0
Фильмы 2019-2020 [DVDrip, WEB-DLRip, HDrip] (DUB, MVO) [ 1.46 GB ] Капоне. Лицо со шрамом / Capone [2020 биография BDRip] bober100 Скачать
1 | 0
Фильмы (Blu-ray, BD-Remux, HDDVD) [ 18.88 GB ] Капоне. Лицо со шрамом / Capone [2020 биография BD Remux 1080p] bober100 Скачать
1 | 0
Фильмы [HD 720p, 1080p] (Хороший звук DUB, MVO) [ 5.93 GB ] Капоне. Лицо со шрамом / Capone [2020 биография BDRip 720p] +MVO [HDrezka Studio] +AVO [Яроцкий] bober100 Скачать
1 | 0
Фильмы [HD 720p, 1080p] (Хороший звук DUB, MVO) [ 8.44 GB ] Капоне. Лицо со шрамом / Capone [2020 биография BDRip 1080p] +MVO [HDrezka Studio] +AVO [Яроцкий] bober100 Скачать
1 | 0
Фильмы [HD 720p, 1080p] (Хороший звук DUB, MVO) [ 4.37 GB ] Капоне / Capone [1975 биография BDRip 720p многоголосый [] Ворон Скачать
1 | 0

28-11-2019 20:33  

Отключить всю рекламу на сайте

    Дорогой пользователь! Огромная просьба, поблагодарите релизера, оцените раздачу и оставьте свои комментарий, если Вы скачали Капоне через торрент бесплатно!
    Комментировать посты могут только пользователи прошедшие не сложную регистрацию
    Показать сообщения:    

    Капоне через торрент
    Скачать бесплатно Капоне
    Капоне скачать торрент
    Капоне смотреть онлайн
    Cкачать фильм Капоне бесплатно
    Капоне скачать торрент в хорошем качестве
    Капоне смотреть онлайн бесплатно в хорошем качестве


    Вы не можете начинать темы
    Вы не можете отвечать на сообщения
    Вы не можете редактировать свои сообщения
    Вы не можете удалять свои сообщения
    Вы не можете голосовать в опросах
    Вы не можете прикреплять файлы к сообщениям
    Вы можете скачивать файлы