Всегда рабочее зеркало без VPN и Proxy просто перед .vidak.icu напиши любое слово или цифру, Пример http://b13e.vidak.icu

MVO

Лицензия

1 сезон

1

1 сезон

iTunes

1 сезон

13

1 сезон

Deluxe

pack

Рекомендуем

Пиратка

30

ВАЖНО

RePack

MK11

RePack

jed

RePack

fifa19

RePack

RDR2

RePack

NEED FOR SPEED™ PAYBACK

Кинопоиск HD

6 сезон

 Острые козырьки 6 сезон

Все сериалы

все сериалы на PB.wtf

RePack

FAR CRY 5
  
Magnet ссылка

Город героев / Big Hero 6 (Дон Холл, Крис Уильямс) [2014, мультфильм, фантастика, комедия, семейный, боевик, BDRip 720p / 60 fps] от NNNB kino.freetor.icu

Город героев через торрент kino.freetor.icu

Размер: 3.92 GB | Добавлен: 7 лет 4 мес. назад | Торрент скачан:1558 раз
Смотреть онлайн Город героев | Скачать    Ребята, помогите собрать деньги на оплату серверов!!!

11-02-2015 17:57 Город героев Скачать торрент  

Информация о фильме
Русское название: Город героев
Оригинальное название: Big Hero 6
Год выхода: 2014
Жанр: мультфильм, фантастика, комедия, семейный, боевик
Режиссер: Дон Холл, Крис Уильямс
Выпущено: США
Продолжительность: 01:41:52
Перевод: Дублированный | iTunes Russia (будет обновлено до Лицензии)
Роли озвучивали: Райан Поттер, Скотт Эдсит, Джейми Чунг, ТиДжей Миллер, Дженесис Родригес, Дэймон Уайанс мл., Майя Рудольф, Джеймс Кромуэлл, Алан Тьюдик, Чарльз Адлер




Сюжет фильма
Юный Хиро Хамада — прирожденный изобретатель и гений конструирования роботов. Вместе со старшим братом Тадаши они воплощают в жизнь самые передовые идеи в Техническом университете города будущего Сан-Франсокио. После серии загадочных событий друзья оказываются в центре коварного заговора. Отчаявшись, Хиро решает использовать веселого и добродушного экспериментального робота Бэймакса, перепрограммировав его в неуязвимую боевую машину.
Файл
Качество: BDRip 720p (исходник Blu-ray Disc Remux)
Видео: 1280x536, 4375 Кбит/сек, 59.940 кадр/сек, AVC, x264, High@L4.1, 2.40:1, 0.106 Бит/[Пиксели*Кадры]
Аудио 1: AC-3, 384 Кбит/сек, 6 канала(ов), 48,0 КГц - Дублированный / Русский
Аудио 2: AC-3, 640 Кбит/сек, 6 канала(ов), 48,0 КГц - Оригинал / Английский
Субтитры: Русские | Полные, Английские | Полные
Форсированные субтитры: Нет
Чаптеры (Главы): Есть[/ul]



Автор Рипа: Сообщество:
Format : Matroska
Format version : Version 2
File size : 3.78 GiB
Duration : 1h 41mn
Overall bit rate : 5 312 Kbps
Movie name : Город героев.(2014).BDRip.720p.[envy].[60fps]
Encoded date : UTC 2015-02-09 19:26:47
Writing application : mkvmerge v5.8.0 ('No Sleep / Pillow') built on Sep 2 2012 15:37:04
Writing library : libebml v1.2.3 + libmatroska v1.3.0

Video
ID : 1
Format : AVC
Format/Info : Advanced Video Codec
Format profile : High@L4.1
Format settings, CABAC : Yes
Format settings, ReFrames : 9 frames
Codec ID : V_MPEG4/ISO/AVC
Duration : 1h 41mn
Bit rate : 4 375 Kbps
Width : 1 280 pixels
Height : 536 pixels
Display aspect ratio : 2.40:1
Frame rate mode : Constant
Frame rate : 59.880 fps
Original frame rate : 59.940 fps
Color space : YUV
Chroma subsampling : 4:2:0
Bit depth : 8 bits
Scan type : Progressive
Bits/(Pixel*Frame) : 0.106
Stream size : 3.11 GiB (82%)
Title : Город героев.(2014).BDRip.720p.[envy].[60fps]
Writing library : x264 core 130 r2273 b3065e6
Encoding settings : cabac=1 / ref=9 / deblock=1:0:0 / analyse=0x3:0x133 / me=umh / subme=11 / psy=1 / psy_rd=1.00:0.00 / mixed_ref=1 / me_range=28 / chroma_me=1 / trellis=2 / 8x8dct=1 / cqm=0 / deadzone=21,11 / fast_pskip=0 / chroma_qp_offset=-2 / threads=12 / lookahead_threads=1 / sliced_threads=0 / nr=0 / decimate=1 / interlaced=0 / bluray_compat=0 / constrained_intra=0 / bframes=5 / b_pyramid=2 / b_adapt=2 / b_bias=0 / direct=3 / weightb=1 / open_gop=0 / weightp=2 / keyint=250 / keyint_min=25 / scenecut=40 / intra_refresh=0 / rc=crf / mbtree=0 / crf=18.0 / qcomp=0.60 / qpmin=0 / qpmax=69 / qpstep=4 / ip_ratio=1.40 / pb_ratio=1.30 / aq=2:0.90
Language : English
Default : Yes
Forced : No

Audio #1
ID : 2
Format : AC-3
Format/Info : Audio Coding 3
Mode extension : CM (complete main)
Format settings, Endianness : Big
Codec ID : A_AC3
Duration : 1h 41mn
Bit rate mode : Constant
Bit rate : 192 Kbps
Channel(s) : 2 channels
Channel positions : Front: L R
Sampling rate : 48.0 KHz
Bit depth : 16 bits
Compression mode : Lossy
Stream size : 140 MiB (4%)
Title : Dub clear sound
Language : Russian
Default : Yes
Forced : No

Audio #2
ID : 3
Format : AC-3
Format/Info : Audio Coding 3
Mode extension : CM (complete main)
Format settings, Endianness : Big
Codec ID : A_AC3
Duration : 1h 41mn
Bit rate mode : Constant
Bit rate : 640 Kbps
Channel(s) : 6 channels
Channel positions : Front: L C R, Side: L R, LFE
Sampling rate : 48.0 KHz
Bit depth : 16 bits
Compression mode : Lossy
Stream size : 466 MiB (12%)
Title : Eng
Language : English
Default : No
Forced : No

Text #1
ID : 4
Format : UTF-8
Codec ID : S_TEXT/UTF8
Codec ID/Info : UTF-8 Plain Text
Title : full
Language : Russian
Default : No
Forced : No

Text #2
ID : 5
Format : UTF-8
Codec ID : S_TEXT/UTF8
Codec ID/Info : UTF-8 Plain Text
Title : full
Language : English
Default : No
Forced : No

Menu
00:00:00.000 : en:00:00:00.000
00:07:15.685 : en:00:07:15.685
00:14:37.835 : en:00:14:37.835
00:21:49.183 : en:00:21:49.183
00:24:32.888 : en:00:24:32.888
00:29:34.731 : en:00:29:34.731
00:36:58.091 : en:00:36:58.091
00:44:18.322 : en:00:44:18.322
00:50:49.088 : en:00:50:49.088
00:54:33.020 : en:00:54:33.020
01:00:44.140 : en:01:00:44.140
01:07:12.612 : en:01:07:12.612
01:11:54.644 : en:01:11:54.644
01:16:26.665 : en:01:16:26.665
01:24:44.162 : en:01:24:44.162
01:31:52.757 : en:01:31:52.757

ВНИМАНИЕ!!!
Все другие релизы размещеные в сети, похожие размером, настройками, качеством, являются плагиатом и дублированием оригинального файла.
Просто появились "грамотные люди" которые сами нормально сделать не могут, и просто в тупую правят файл, подписывая его своим именем, или группой.
Я думаю вам не без разницы что вы скачиваете, но знайте где появляются релизы с искусственно увеличенной частотой кадров от NNNB
Оригинальные раздачи от группы подписаны так же: "NNNB"kino.freetor.icu



Скачать Город героев через торрент http://www.firepic.org/images/2015-02/11/mvqy8fqk73di.png Скачать, смотреть онлайн Город героев бесплантно в хорошем качестве Информация о фильмеРусское название: Город героевОригинальное название: Big Hero 6Год выхода: 2014Жанр: мультфильм, фантастика, комедия, ... 9.6 10 44
Info! Золотая раздача, скачанное не засчитывается.
Торрент: Зарегистрирован [2015-02-27 16:31] · скачан: 1 558 раз
Статус: √ проверено
Размер: 3.92 GB
Как cкачать? Как скачать Город героев через торрент | UTorrent



Последний раз редактировалось: еnvy (2015-02-27 19:06), всего редактировалось 3 раз(а)

28-11-2019 20:33  

Отключить всю рекламу на сайте

28-02-2015 10:46 Город героев Скачать торрент  

Что со скринами ?kino.freetor.icu



09-03-2015 18:38 Город героев Скачать торрент  

Не комментируют почему то(kino.freetor.icu



    Дорогой пользователь! Огромная просьба, поблагодарите релизера, оцените раздачу и оставьте свои комментарий, если Вы скачали Город героев через торрент бесплатно!
    Комментировать посты могут только пользователи прошедшие не сложную регистрацию
    Показать сообщения:    

    Город героев через торрент
    Скачать бесплатно Город героев
    Город героев скачать торрент
    Город героев смотреть онлайн
    Cкачать фильм Город героев бесплатно
    Город героев скачать торрент в хорошем качестве
    Город героев смотреть онлайн бесплатно в хорошем качестве


    Вы не можете начинать темы
    Вы не можете отвечать на сообщения
    Вы не можете редактировать свои сообщения
    Вы не можете удалять свои сообщения
    Вы не можете голосовать в опросах
    Вы не можете прикреплять файлы к сообщениям
    Вы можете скачивать файлы