Присоединяйтесь к нам в Telegram!, здесь всегда актуальный адрес сайта, оперативная поддержка и многое другое!!

>

5.9

iTunes

7.4

iTunes

9.4

1 сезон

1

7.4

2 сезон

7.2

iTunes

7.3

1 сезон

13

6.1

iTunes

8.3

Пиратка

30

ULTIMATE

pack

9.9

Лицензия

ВАЖНО

ИГРА 18+

pack

7.3

RePack

MK11

7.7

RePack

jed

7.8

RePack

fifa19

8.5

RePack

RDR2

RePack

NEED FOR SPEED™ PAYBACK

5 сезон

9 сезон

Бесстыжие 9 сезон

Все сериалы

все сериалы на PB.wtf

RePack

FAR CRY 5

Anonymous, доброй ночи, мы катастрофически не успеваем собрать деньги на оплату серверов, помогите нам пожалуйста 5,10,15р., для нас важна любая помощь . В качестве благодарности мы отключим Вам всю рекламу на сайте (укажите свой ник в строку Ваше имя)!

×
  
Magnet ссылка

Лесной змей / Wyrmwood (Кия Роуч-Тернер ) [2014, ужасы, боевик, WEB-DL 720p, Любительский (одноголосый) [Xixidok] kino.freetor.icu

Лесной змей через торрент kino.freetor.icu

Размер: 3.14 GB | Добавлен: 6 лет 9 мес. назад | Торрент скачан:44 раза
Смотреть онлайн Лесной змей | Скачать    Ребята, помогите собрать деньги на оплату серверов!!!

14-02-2015 22:20 Лесной змей Скачать торрент  


Лесной змей / Wyrmwood


ИНФОРМАЦИЯ:
Год выпуска:2014
Страна:Австралия
Жанр:ужасы, боевик
Продолжительность01:38:34
Перевод:Любительский (одноголосый) [Xixidok]
Субтитры: английские,
Режиссер:Кия Роуч-Тернер

В Ролях:


Джей Галлахер (Barry), Бьянка Брэди (Brooke), Леон Бурчилл (Benny), Люк МакКензи (The Captain), Юр Кович (Chalker), Кит Агиус (Frank), Катрин Террачини (Annie), Meganne West (Meganne), Кэйн Томпсон (McGaughlin), Бет Обри (Charlotte), Sheridan Harbridge (Sherri), Дэмиэн Дайк (Thompson)

ОПИСАНИЕ:
Барри был талантливым механиком и семейным человеком, пока его жизнь не была разрушена в канун зомби-апокалипсиса. В дороге он объединяется с ещё одним выжившим, Чалкером, и вместе они вооружают себя, чтобы противостоять на своём пути орде плотоядных монстров, рыщущих в суровых австралийских зарослях.

  • Мировая премьера:19 сентября 2014

    ТЕХ.ДАННЫЕ:
    Качество: WEB-DL 720p
    Формат: MKV | Видео кодек: AVC | Аудио кодек: AC3, MP3
    Видео: ✦1280x720 (16:9)✦ 3891 kbps✦ 24 fps✦ 0,176 bpp
    Аудио №1: ✦русский ✦ 2.0 ✦ 44 kHz ✦ 192 kbps ✦ ||
    Аудио №2: ✦английский ✦ 5.1 ✦ 48 kHz ✦ 384 kbps ✦ 16 bit ✦
    Навигация по главам: есть


    Код:

    General
    Unique ID                                : 243967523898328380646454312311278000409 (0xB78A6F9BF390B02BA11A58558EA7D919)
    Complete name                            : D:\Торенты\Wyrmwood.2014.L1.WEB-DLRip.720p.mkv
    Format                                   : Matroska
    Format version                           : Version 4 / Version 2
    File size                                : 3.14 GiB
    Duration                                 : 1h 38mn
    Overall bit rate                         : 4 558 Kbps
    Encoded date                             : UTC 2015-02-14 21:23:08
    Writing application                      : mkvmerge v6.5.0 ('Isn't she lovely') built on Oct 20 2013 12:50:05
    Writing library                          : libebml v1.3.0 + libmatroska v1.4.1

    Video
    ID                                       : 1
    Format                                   : AVC
    Format/Info                              : Advanced Video Codec
    Format profile                           : High@L3.1
    Format settings, CABAC                   : No
    Format settings, ReFrames                : 2 frames
    Codec ID                                 : V_MPEG4/ISO/AVC
    Duration                                 : 1h 38mn
    Bit rate                                 : 3 891 Kbps
    Width                                    : 1 280 pixels
    Height                                   : 720 pixels
    Display aspect ratio                     : 16:9
    Frame rate                               : 24.000 fps
    Color space                              : YUV
    Chroma subsampling                       : 4:2:0
    Bit depth                                : 8 bits
    Scan type                                : Progressive
    Bits/(Pixel*Frame)                       : 0.176
    Stream size                              : 2.68 GiB (85%)
    Language                                 : English
    Default                                  : Yes
    Forced                                   : No
    Color primaries                          : BT.709-5, BT.1361, IEC 61966-2-4, SMPTE RP177
    Transfer characteristics                 : BT.709-5, BT.1361
    Matrix coefficients                      : BT.709-5, BT.1361, IEC 61966-2-4 709, SMPTE RP177

    Audio #1
    ID                                       : 2
    Format                                   : MPEG Audio
    Format version                           : Version 1
    Format profile                           : Layer 3
    Codec ID                                 : A_MPEG/L3
    Codec ID/Hint                            : MP3
    Duration                                 : 1h 38mn
    Bit rate mode                            : Constant
    Bit rate                                 : 192 Kbps
    Channel(s)                               : 2 channels
    Sampling rate                            : 44.1 KHz
    Compression mode                         : Lossy
    Stream size                              : 135 MiB (4%)
    Language                                 : Russian
    Default                                  : Yes
    Forced                                   : No

    Audio #2
    ID                                       : 3
    Format                                   : AC-3
    Format/Info                              : Audio Coding 3
    Mode extension                           : CM (complete main)
    Codec ID                                 : A_AC3
    Duration                                 : 1h 38mn
    Bit rate mode                            : Constant
    Bit rate                                 : 384 Kbps
    Channel(s)                               : 6 channels
    Channel positions                        : Front: L C R, Side: L R, LFE
    Sampling rate                            : 48.0 KHz
    Bit depth                                : 16 bits
    Compression mode                         : Lossy
    Stream size                              : 271 MiB (8%)
    Language                                 : English
    Default                                  : No
    Forced                                   : No

    Text
    ID                                       : 4
    Format                                   : UTF-8
    Codec ID                                 : S_TEXT/UTF8
    Codec ID/Info                            : UTF-8 Plain Text
    Language                                 : English
    Default                                  : No
    Forced                                   : No

    Menu
    00:00:00.000                             : en:1
    00:14:59.000                             : en:2
    00:26:34.000                             : en:3
    00:39:25.000                             : en:4
    00:53:51.000                             : en:5
    01:07:38.000                             : en:6
    01:22:07.000                             : en:7
    01:34:51.000                             : en:8

    Скриншоты:


    © Оформление by Ворон
    kino.freetor.icu



  • Скачать Лесной змей через торрент https://pic1.kartinco.top/images/61/ordi9.jpg Скачать, смотреть онлайн Лесной змей бесплантно в хорошем качестве Е:Барри был талантливым механиком и семейным человеком, пока его жизнь не была разрушена в канун зомби-апокалипсиса. В дороге он ... 5.5 10 2
    Торрент: Зарегистрирован [2015-02-14 22:20] · скачан: 44 раз
    Статус: √ проверено
    Размер: 3.14 GB
    Как cкачать? Как скачать Лесной змей через торрент | UTorrent

    % Раздел Тема Автор DL S | L
    T Фильмы (WEB-DL 720p, 1080p) [ 3.4 GB ] Лесной змей / Wyrmwood [2014 WEB-DL 720p DVO+VO] Ворон Скачать
    1 | 0
    Фильмы с авторской озвучкой [ 2.03 GB ] Лесной змей / Wyrmwood [2014 HDRip Авторский одноголосый "Д. Есарев"] coc900 Скачать
    1 | 0
    T Фильмы 2014 (Звук TS, Cam, VO, DVO) [ 2.27 GB ] Лесной змей / Wyrmwood [2014 WEB-DLRip-AVC Любительский двухголосый [DeadSno & den904] Ворон Скачать
    1 | 0
    Фильмы 2014 (Звук TS, Cam, VO, DVO) [ 1.37 GB ] Лесной змей / Wyrmwood [2014 WEB-DLRip Любительский двухголосый [DeadSno & den904] Ворон Скачать
    1 | 0
    Фильмы 2014 (Звук TS, Cam, VO, DVO) [ 1.37 GB ] Лесной змей / Wyrmwood [2014 WEB-DLRip Любительский [Xixidok] Ворон Скачать
    1 | 0

    28-11-2019 20:33  

    Отключить всю рекламу на сайте

      Дорогой пользователь! Огромная просьба, поблагодарите релизера, оцените раздачу и оставьте свои комментарий, если Вы скачали Лесной змей через торрент бесплатно!
      Комментировать посты могут только пользователи прошедшие не сложную регистрацию
      Показать сообщения:    

      Лесной змей через торрент
      Скачать бесплатно Лесной змей
      Лесной змей скачать торрент
      Лесной змей смотреть онлайн
      Cкачать фильм Лесной змей бесплатно
      Лесной змей скачать торрент в хорошем качестве
      Лесной змей смотреть онлайн бесплатно в хорошем качестве


      Вы не можете начинать темы
      Вы не можете отвечать на сообщения
      Вы не можете редактировать свои сообщения
      Вы не можете удалять свои сообщения
      Вы не можете голосовать в опросах
      Вы не можете прикреплять файлы к сообщениям
      Вы можете скачивать файлы