Присоединяйтесь к нам в Telegram!, здесь всегда актуальный адрес сайта, оперативная поддержка и многое другое!!

>

5.9

iTunes

7.4

iTunes

9.4

1 сезон

1

7.4

2 сезон

7.2

iTunes

7.3

1 сезон

13

6.1

iTunes

8.3

GOG

30

ULTIMATE

pack

9.9

Лицензия

ВАЖНО

ИГРА 18+

pack

7.3

RePack

MK11

7.7

RePack

jed

7.8

RePack

fifa19

8.5

RePack

RDR2

RePack

NEED FOR SPEED™ PAYBACK

5 сезон

9 сезон

Бесстыжие 9 сезон

Все сериалы

все сериалы на PB.wtf

RePack

FAR CRY 5

Anonymous, доброе утро, мы катастрофически не успеваем собрать деньги на оплату серверов, помогите нам пожалуйста 5,10,15р., для нас важна любая помощь . В качестве благодарности мы отключим Вам всю рекламу на сайте (укажите свой ник в строку Ваше имя)!

×
  
Magnet ссылка

Восход / Rise (Mack Lindon ) [2015, новости, драма, криминал, WEB-DL 720p, Любительский (двухголосый) [RAIM & NASTR] kino.freetor.icu

Восход через торрент kino.freetor.icu

Размер: 3.45 GB | Добавлен: 6 лет 9 мес. назад | Торрент скачан:57 раз
Смотреть онлайн Восход | Скачать    Ребята, помогите собрать деньги на оплату серверов!!!

15-02-2015 11:23 Восход Скачать торрент  


Восход / Rise


ИНФОРМАЦИЯ:
Год выпуска:2015
Страна:Австралия
Жанр:новости, драма, криминал
Продолжительность01:42:41
Перевод:Любительский (двухголосый) [RAIM & NASTR]
Режиссер:Mack Lindon

В Ролях:


Джессика Грин (Amber), Стефани Мэй (Arielle Williams), Мартин Сакс (Jimmy), Рис Милн (Ben), Tade Adepoyibi (Trish Billet), Камерон Колфилд (Young Will), Джемма Лорелл (Constable Rossi), Джеймс Кирни (Senior Detective Bridges), Курт Стоуэрс (Guard Walsh), Рози Кеог (Jane Tier), Эрин Коннор (Julie Nile), Линда Миллар (Chief Warden)

ОПИСАНИЕ:
История, основанная на реальных событиях, о молодом медбрате, ошибочно осужденном в изнасиловании. Лишенный своей карьеры и свободы, Уилл вынужден выживать в тюрьме строгого режима. Сюжет фильма развивается вокруг маловероятной дружбы с закаленным и опасным преступником Джимми и правовой битвы известного адвоката, который должен вернуть Уиллу его честное имя, найдя доказательства его невиновности.

  • Мировая премьера:20 февраля 2015

    ТЕХ.ДАННЫЕ:
    Качество: WEB-DL 720p
    Формат: MKV ✦ Видео кодек: AVC ✦ Аудио кодек: AC3
    Видео: 1280x540 (2.35:1)| 4135 kbps| 24 fps| 0,249 bpp
    Аудио №1: русский | 2.0 | 48 kHz | 192 kbps | 16 bit | ||
    Аудио №2: английский | 5.1 | 48 kHz | 384 kbps | 16 bit |
    Навигация по главам: есть


    Код:

    General
    Unique ID                                : 186480526415363022536907836284693029540 (0x8C4AD7CDFC5F0B09AF6652D0FD76A2A4)
    Complete name                            : D:\Торенты\Rise.2014.L2.WEB-DL-720p.mkv
    Format                                   : Matroska
    Format version                           : Version 4 / Version 2
    File size                                : 3.45 GiB
    Duration                                 : 1h 42mn
    Overall bit rate                         : 4 807 Kbps
    Encoded date                             : UTC 2015-02-14 22:43:40
    Writing application                      : mkvmerge v6.5.0 ('Isn't she lovely') built on Oct 20 2013 12:50:05
    Writing library                          : libebml v1.3.0 + libmatroska v1.4.1

    Video
    ID                                       : 1
    Format                                   : AVC
    Format/Info                              : Advanced Video Codec
    Format profile                           : Main@L3.1
    Format settings, CABAC                   : No
    Format settings, ReFrames                : 2 frames
    Codec ID                                 : V_MPEG4/ISO/AVC
    Duration                                 : 1h 42mn
    Bit rate                                 : 4 135 Kbps
    Width                                    : 1 280 pixels
    Height                                   : 540 pixels
    Display aspect ratio                     : 2.35:1
    Frame rate                               : 24.000 fps
    Color space                              : YUV
    Chroma subsampling                       : 4:2:0
    Bit depth                                : 8 bits
    Scan type                                : Progressive
    Bits/(Pixel*Frame)                       : 0.249
    Stream size                              : 2.97 GiB (86%)
    Language                                 : English
    Default                                  : Yes
    Forced                                   : No
    Color primaries                          : BT.709-5, BT.1361, IEC 61966-2-4, SMPTE RP177
    Transfer characteristics                 : BT.709-5, BT.1361
    Matrix coefficients                      : BT.709-5, BT.1361, IEC 61966-2-4 709, SMPTE RP177

    Audio #1
    ID                                       : 2
    Format                                   : AC-3
    Format/Info                              : Audio Coding 3
    Mode extension                           : CM (complete main)
    Codec ID                                 : A_AC3
    Duration                                 : 1h 42mn
    Bit rate mode                            : Constant
    Bit rate                                 : 192 Kbps
    Channel(s)                               : 2 channels
    Channel positions                        : Front: L R
    Sampling rate                            : 48.0 KHz
    Bit depth                                : 16 bits
    Compression mode                         : Lossy
    Stream size                              : 141 MiB (4%)
    Language                                 : Russian
    Default                                  : Yes
    Forced                                   : No

    Audio #2
    ID                                       : 3
    Format                                   : AC-3
    Format/Info                              : Audio Coding 3
    Mode extension                           : CM (complete main)
    Codec ID                                 : A_AC3
    Duration                                 : 1h 42mn
    Bit rate mode                            : Constant
    Bit rate                                 : 384 Kbps
    Channel(s)                               : 6 channels
    Channel positions                        : Front: L C R, Side: L R, LFE
    Sampling rate                            : 48.0 KHz
    Bit depth                                : 16 bits
    Compression mode                         : Lossy
    Stream size                              : 282 MiB (8%)
    Language                                 : English
    Default                                  : No
    Forced                                   : No

    Menu
    00:00:00.000                             : en:Opening Sequence
    00:07:31.000                             : en:It's The Police
    00:12:51.000                             : en:Welcome Home Jimmy
    00:18:35.000                             : en:You Awake?
    00:28:14.000                             : en:That Your Mum?
    00:36:53.000                             : en:I Need You
    00:41:30.000                             : en:Jimmy's Yard
    00:47:51.000                             : en:That's It Fung!
    00:54:46.000                             : en:I Forgive You
    00:58:55.000                             : en:You're Up
    01:06:57.000                             : en:Jimmy's Mom
    01:13:11.000                             : en:Early Wake Up Call
    01:19:15.000                             : en:You Happy Sir?
    01:23:09.000                             : en:Staying Out Of Trouble
    01:30:42.000                             : en:Released
    01:36:37.000                             : en:End Credits

    Скриншоты:


    © Оформление by Ворон
    kino.freetor.icu



  • Скачать Восход через торрент https://pic1.kartinco.top/images/61/ordi9.jpg Скачать, смотреть онлайн Восход бесплантно в хорошем качестве Е:История, основанная на реальных событиях, о молодом медбрате, ошибочно осужденном в изнасиловании. Лишенный своей карьеры и свободы, Уилл ... 5.5 10 2
    Торрент: Зарегистрирован [2015-02-15 11:23] · скачан: 57 раз
    Статус: √ проверено
    Размер: 3.45 GB
    Как cкачать? Как скачать Восход через торрент | UTorrent

    % Раздел Тема Автор DL S | L
    Порно фильмы DVD [ 6.96 GB ] Восход / Private Tropical 2: Sunrise [2002 Anal DP Hardcore Oral DVD9] Леонид Ильич Скачать
    2 | 1
    Фильмы (WEB-DL 720p, 1080p) [ 5.08 GB ] Звёздные войны: Скайуокер. Восход / Star Wars: Episode IX - The Rise of Skywalker [2019 WEB-DL 1080p] [Локализованная версия] bober100 Скачать
    1 | 0
    Ultra HD (UHD: 2K, 4K, 8K) — видео сверхвысокой чёткости [ 61.77 GB ] Звёздные войны: Скайуокер. Восход / Star Wars: Episode IX - The Rise of Skywalker [2019 UHD Blu-ray 2160p] DUB sheker187 Скачать
    2 | 0
    Фильмы [HD 720p, 1080p] (Хороший звук DUB, MVO) [ 5.94 GB ] Звёздные войны: Скайуокер. Восход / Star Wars: Episode IX - The Rise of Skywalker [2019 BDRip 720p ] от ExKinoRay morfyi Скачать
    2 | 0
    Фильмы [HD 720p, 1080p] (Хороший звук DUB, MVO) [ 7.39 GB ] Звёздные войны: Скайуокер. Восход / Star Wars: Episode IX - The Rise of Skywalker [2019 BDRip 720p Custom AVO] от ExKinoRay morfyi Скачать
    1 | 0
    Фильмы (HD 720p, 1080p) (48-60 fps) [ 4.47 GB ] Звездные войны: Скайуокер. Восход / Star Wars: Episode IX - The Rise of Skywalker [2019 BDRip 720p / 60 FPS ] от R.G. HD-Films slaventi-69 Скачать
    2 | 0
    3D Фильмы [ 15.88 GB ] Звёздные войны: Скайуокер. Восход 3Д / Star Wars: Episode IX - The Rise of Skywalker 3D [2019 BDRip 1080p ] DUB bober100 Скачать
    1 | 0

    28-11-2019 20:33  

    Отключить всю рекламу на сайте

      Дорогой пользователь! Огромная просьба, поблагодарите релизера, оцените раздачу и оставьте свои комментарий, если Вы скачали Восход через торрент бесплатно!
      Комментировать посты могут только пользователи прошедшие не сложную регистрацию
      Показать сообщения:    

      Восход через торрент
      Скачать бесплатно Восход
      Восход скачать торрент
      Восход смотреть онлайн
      Cкачать фильм Восход бесплатно
      Восход скачать торрент в хорошем качестве
      Восход смотреть онлайн бесплатно в хорошем качестве


      Вы не можете начинать темы
      Вы не можете отвечать на сообщения
      Вы не можете редактировать свои сообщения
      Вы не можете удалять свои сообщения
      Вы не можете голосовать в опросах
      Вы не можете прикреплять файлы к сообщениям
      Вы можете скачивать файлы