Присоединяйтесь к нам в Telegram!, здесь всегда актуальный адрес сайта, оперативная поддержка и многое другое!!

>

5.9

iTunes

7.4

iTunes

9.4

1 сезон

1

7.4

2 сезон

7.2

iTunes

7.3

1 сезон

13

6.1

iTunes

8.3

GOG

30

ULTIMATE

pack

9.9

Лицензия

ВАЖНО

ИГРА 18+

pack

7.3

RePack

MK11

7.7

RePack

jed

7.8

RePack

fifa19

8.5

RePack

RDR2

RePack

NEED FOR SPEED™ PAYBACK

5 сезон

9 сезон

Бесстыжие 9 сезон

Все сериалы

все сериалы на PB.wtf

RePack

FAR CRY 5

Anonymous, доброе утро, мы катастрофически не успеваем собрать деньги на оплату серверов, помогите нам пожалуйста 5,10,15р., для нас важна любая помощь . В качестве благодарности мы отключим Вам всю рекламу на сайте (укажите свой ник в строку Ваше имя)!

×
  
Magnet ссылка

Призрак невесты / Ghost Bride (Дэвид Блит ) [2013, фэнтези, триллер, HDTVRip 1080p, Профессиональный (многоголосый) [SDI Media] kino.freetor.icu

Призрак невесты через торрент kino.freetor.icu

Размер: 2.91 GB | Добавлен: 6 лет 9 мес. назад | Торрент скачан:52 раза
Смотреть онлайн Призрак невесты | Скачать    Ребята, помогите собрать деньги на оплату серверов!!!

18-02-2015 17:05 Призрак невесты Скачать торрент  


Призрак невесты / Ghost Bride


ИНФОРМАЦИЯ:
Год выпуска: 2013
Страна: Новая Зеландия
Жанр: фэнтези, триллер
Продолжительность: 01:19:53
Перевод: Профессиональный (многоголосый) [SDI Media]
Режиссер: Дэвид Блит

В Ролях:

Yoson An (Jason), Ребека Палмер (Skye), Фиона Фенг (May-Ling), Йен Мун (Frank), Гилинг Нг (Madam Yin), Catheryn Wu (Alice), Charles Chan (Mr. Yin)

ОПИСАНИЕ:
Молодой китайский иммигрант Джейсон Чен оказывается перед выбором между двумя девушками: новозеландкой Скай, в которую он действительно влюблен, и китаянкой Мэй Линг, на которой его хотят поженить родственники, уповая на традиции их семьи. Вскоре он узнает, что проблема не только в столкновении двух различных культур, но и в столкновении двух миров - мира живых и мира мертвых...

  • Мировая премьера:31 октября 2013

    ТЕХ.ДАННЫЕ:
    Качество: HDTVRip 1080p
    Формат: MPEG-4 ✦ Видео кодек: AVC ✦ Аудио кодек: AAC LC
    Видео: 1920x1080 (16:9)| 5017 kbps| 25 fps| 0,097 bpp
    Аудио: русский | 2.0 | 48 kHz | 192 kbps | ||

    Код:

    General
    Complete name                            : D:\Торенты\Ghost.Bride.2013.HDTVRip.(1080p).mp4
    Format                                   : MPEG-4
    Format profile                           : Base Media
    Codec ID                                 : isom
    File size                                : 2.91 GiB
    Duration                                 : 1h 19mn
    Overall bit rate                         : 5 214 Kbps
    Writing application                      : Lavf56.1.100

    Video
    ID                                       : 1
    Format                                   : AVC
    Format/Info                              : Advanced Video Codec
    Format profile                           : Baseline@L2.0
    Format settings, CABAC                   : No
    Format settings, ReFrames                : 1 frame
    Codec ID                                 : avc1
    Codec ID/Info                            : Advanced Video Coding
    Duration                                 : 1h 19mn
    Bit rate                                 : 5 018 Kbps
    Width                                    : 1 920 pixels
    Height                                   : 1 080 pixels
    Display aspect ratio                     : 16:9
    Frame rate mode                          : Constant
    Frame rate                               : 25.000 fps
    Color space                              : YUV
    Chroma subsampling                       : 4:2:0
    Bit depth                                : 8 bits
    Scan type                                : Progressive
    Bits/(Pixel*Frame)                       : 0.097
    Stream size                              : 2.80 GiB (96%)

    Audio
    ID                                       : 2
    Format                                   : AAC
    Format/Info                              : Advanced Audio Codec
    Format profile                           : LC
    Codec ID                                 : 40
    Duration                                 : 1h 19mn
    Bit rate mode                            : Constant
    Bit rate                                 : 192 Kbps
    Channel(s)                               : 2 channels
    Channel positions                        : Front: L R
    Sampling rate                            : 48.0 KHz
    Compression mode                         : Lossy
    Stream size                              : 110 MiB (4%)
    Language                                 : Russian

    Скриншоты:


    © Оформление by Ворон
    kino.freetor.icu



  • Скачать Призрак невесты через торрент https://pic1.kartinco.top/images/61/ordi9.jpg Скачать, смотреть онлайн Призрак невесты бесплантно в хорошем качестве Е:Молодой китайский иммигрант Джейсон Чен оказывается перед выбором между двумя девушками: новозеландкой Скай, в которую он действительно ... 10 10 5
    Торрент: Зарегистрирован [2015-02-18 17:05] · скачан: 52 раз
    Статус: √ проверено
    Размер: 2.91 GB
    Как cкачать? Как скачать Призрак невесты через торрент | UTorrent

    % Раздел Тема Автор DL S | L
    Фильмы (WEB-DL 720p, 1080p) [ 1.79 GB ] Призрак невесты / Ghost Bride [2013 HDTVRip 720p [SDI Media] Ворон Скачать
    1 | 0
    Фильмы 2013 [DVDrip, WEB-DLRip, HDrip] [ 930 MB ] Призрак невесты / Ghost Bride [2013 HDTVRip [SDI Media] Ворон Скачать
    1 | 0

    28-11-2019 20:33  

    Отключить всю рекламу на сайте

      Дорогой пользователь! Огромная просьба, поблагодарите релизера, оцените раздачу и оставьте свои комментарий, если Вы скачали Призрак невесты через торрент бесплатно!
      Комментировать посты могут только пользователи прошедшие не сложную регистрацию
      Показать сообщения:    

      Призрак невесты через торрент
      Скачать бесплатно Призрак невесты
      Призрак невесты скачать торрент
      Призрак невесты смотреть онлайн
      Cкачать фильм Призрак невесты бесплатно
      Призрак невесты скачать торрент в хорошем качестве
      Призрак невесты смотреть онлайн бесплатно в хорошем качестве


      Вы не можете начинать темы
      Вы не можете отвечать на сообщения
      Вы не можете редактировать свои сообщения
      Вы не можете удалять свои сообщения
      Вы не можете голосовать в опросах
      Вы не можете прикреплять файлы к сообщениям
      Вы можете скачивать файлы