Присоединяйтесь к нам в Telegram!, здесь всегда актуальный адрес сайта, оперативная поддержка и многое другое!!

>

5.9

iTunes

7.4

iTunes

9.4

1 сезон

1

7.4

2 сезон

7.2

iTunes

7.3

1 сезон

13

6.1

iTunes

8.3

GOG

30

ULTIMATE

pack

9.9

Лицензия

ВАЖНО

ИГРА 18+

pack

7.3

RePack

MK11

7.7

RePack

jed

7.8

RePack

fifa19

8.5

RePack

RDR2

RePack

NEED FOR SPEED™ PAYBACK

5 сезон

9 сезон

Бесстыжие 9 сезон

Все сериалы

все сериалы на PB.wtf

RePack

FAR CRY 5

Anonymous, доброе утро, мы катастрофически не успеваем собрать деньги на оплату серверов, помогите нам пожалуйста 5,10,15р., для нас важна любая помощь . В качестве благодарности мы отключим Вам всю рекламу на сайте (укажите свой ник в строку Ваше имя)!

×
  
Magnet ссылка

Я дышу / Respire (Мелани Лоран ) [2014, драма, WEB-DL 720p, Дубляж] iTunes kino.freetor.icu

Я дышу через торрент kino.freetor.icu

Размер: 2.87 GB | Добавлен: 6 лет 9 мес. назад | Торрент скачан:59 раз
Смотреть онлайн Я дышу | Скачать    Ребята, помогите собрать деньги на оплату серверов!!!

19-02-2015 04:55 Я дышу Скачать торрент  


Я дышу / Respire


ИНФОРМАЦИЯ:
Год выпуска: 2014
Страна: Франция
Жанр: драма
Продолжительность: 01:26:31
Перевод: Дубляж - [Лицензия / iTunes]
Субтитры: английские, Spanish, португальские,
Режиссер: Мелани Лоран

В Ролях:


Жозефин Джепи (Charlie), Лу де Лааж (Sarah), Изабель Карре (Vanessa - la mère de Charlie), Клер Кейм (Laura), Радивойе Буквич (Le père de Charlie), Роксана Дюран (Victoire), Тома Соливерес (Gastine), Камилль Кларис (Delphine), Лука Мельява (Lucas), Луиз Гринбер (Louise), Фанни Сидни (Isa), Энн Маривин

ОПИСАНИЕ:
Шарли всего 17, и жизнь только начинается. Ее терзают страхи и сомнения, она еще многого боится и не слишком уверена в себе. Однажды в ее классе появляется новенькая. Красотка Сара сразу сближается с Шарли, и все в ее жизни меняется. Отношения девушек перерастают в необычную и опасную связь, от которой будет непросто освободиться и вновь вздохнуть полной грудью...

  • Мировая премьера:17 мая 2014

    ТЕХ.ДАННЫЕ:
    Качество: WEB-DL 720p
    Формат: MKV ✦ Видео кодек: AVC ✦ Аудио кодек: AC3
    Видео: 1280@960x536| 3886 kbps| 25 fps| 0,302 bpp
    Аудио №1: 5.1 | 48 kHz | 384 kbps | 16 bit |
    Аудио №2: французский | 5.1 | 48 kHz | 384 kbps | 16 bit |
    Навигация по главам: есть


    Код:

    General
    Unique ID                                : 212248136175428178008872680076704190453 (0x9FAD810D5B6D1CE682B18167C0E38FF5)
    Complete name                            : D:\Торенты\Ja.dyshu.2014.D.WEB-DL.720p.mkv
    Format                                   : Matroska
    Format version                           : Version 4 / Version 2
    File size                                : 2.87 GiB
    Duration                                 : 1h 26mn
    Overall bit rate                         : 4 749 Kbps
    Encoded date                             : UTC 2015-02-18 19:27:06
    Writing application                      : mkvmerge v6.9.1 ('Blue Panther') 64bit built on Apr 18 2014 18:23:38
    Writing library                          : libebml v1.3.0 + libmatroska v1.4.1

    Video
    ID                                       : 1
    Format                                   : AVC
    Format/Info                              : Advanced Video Codec
    Format profile                           : Main@L3.1
    Format settings, CABAC                   : No
    Format settings, ReFrames                : 2 frames
    Codec ID                                 : V_MPEG4/ISO/AVC
    Duration                                 : 1h 26mn
    Bit rate                                 : 3 886 Kbps
    Width                                    : 1280 pixels
    Height                                   : 536 pixels
    Display aspect ratio                     : 2.40:1
    Frame rate                               : 25.000 fps
    Color space                              : YUV
    Chroma subsampling                       : 4:2:0
    Bit depth                                : 8 bits
    Scan type                                : Progressive
    Bits/(Pixel*Frame)                       : 0.302
    Stream size                              : 2.35 GiB (82%)
    Language                                 : English
    Default                                  : Yes
    Forced                                   : No
    Color primaries                          : BT.709-5, BT.1361, IEC 61966-2-4, SMPTE RP177
    Transfer characteristics                 : BT.709-5, BT.1361
    Matrix coefficients                      : BT.709-5, BT.1361, IEC 61966-2-4 709, SMPTE RP177

    Audio #1
    ID                                       : 2
    Format                                   : AC-3
    Format/Info                              : Audio Coding 3
    Mode extension                           : CM (complete main)
    Codec ID                                 : A_AC3
    Duration                                 : 1h 26mn
    Bit rate mode                            : Constant
    Bit rate                                 : 384 Kbps
    Channel(s)                               : 6 channels
    Channel positions                        : Front: L C R, Side: L R, LFE
    Sampling rate                            : 48.0 KHz
    Bit depth                                : 16 bits
    Compression mode                         : Lossy
    Stream size                              : 238 MiB (8%)
    Default                                  : Yes
    Forced                                   : No

    Audio #2
    ID                                       : 3
    Format                                   : AC-3
    Format/Info                              : Audio Coding 3
    Mode extension                           : CM (complete main)
    Codec ID                                 : A_AC3
    Duration                                 : 1h 26mn
    Bit rate mode                            : Constant
    Bit rate                                 : 384 Kbps
    Channel(s)                               : 6 channels
    Channel positions                        : Front: L C R, Side: L R, LFE
    Sampling rate                            : 48.0 KHz
    Bit depth                                : 16 bits
    Compression mode                         : Lossy
    Stream size                              : 238 MiB (8%)
    Language                                 : French
    Default                                  : No
    Forced                                   : No

    Text #1
    ID                                       : 4
    Format                                   : UTF-8
    Codec ID                                 : S_TEXT/UTF8
    Codec ID/Info                            : UTF-8 Plain Text
    Language                                 : English
    Default                                  : Yes
    Forced                                   : No

    Text #2
    ID                                       : 5
    Format                                   : UTF-8
    Codec ID                                 : S_TEXT/UTF8
    Codec ID/Info                            : UTF-8 Plain Text
    Language                                 : Spanish
    Default                                  : No
    Forced                                   : No

    Text #3
    ID                                       : 6
    Format                                   : UTF-8
    Codec ID                                 : S_TEXT/UTF8
    Codec ID/Info                            : UTF-8 Plain Text
    Language                                 : Portuguese
    Default                                  : No
    Forced                                   : No

    Menu
    00:00:00.000                             : en:01
    00:08:00.000                             : en:02
    00:16:00.000                             : en:03
    00:24:00.000                             : en:04
    00:32:00.000                             : en:05
    00:40:00.000                             : en:06
    00:48:00.000                             : en:07
    00:56:00.000                             : en:08
    01:04:00.000                             : en:09
    01:12:00.000                             : en:10

    Скриншоты:


    © Оформление by Ворон
    kino.freetor.icu



  • Скачать Я дышу через торрент https://pic1.kartinco.top/images/61/ordi9.jpg Скачать, смотреть онлайн Я дышу бесплантно в хорошем качестве Е:Шарли всего 17, и жизнь только начинается. Ее терзают страхи и сомнения, она еще многого боится и не слишком уверена в себе. Однажды в ее ... 10 10 3
    Торрент: Зарегистрирован [2015-02-19 04:55] · скачан: 59 раз
    Статус: √ проверено
    Размер: 2.87 GB
    Как cкачать? Как скачать Я дышу через торрент | UTorrent

    % Раздел Тема Автор DL S | L
    Фильмы 2014 [DVDrip, WEB-DLRip, HDrip] [ 1.37 GB ] Я дышу / Respire [2014 WEB-DLRip ] Ворон Скачать
    1 | 0

    28-11-2019 20:33  

    Отключить всю рекламу на сайте

      Дорогой пользователь! Огромная просьба, поблагодарите релизера, оцените раздачу и оставьте свои комментарий, если Вы скачали Я дышу через торрент бесплатно!
      Комментировать посты могут только пользователи прошедшие не сложную регистрацию
      Показать сообщения:    

      Я дышу через торрент
      Скачать бесплатно Я дышу
      Я дышу скачать торрент
      Я дышу смотреть онлайн
      Cкачать фильм Я дышу бесплатно
      Я дышу скачать торрент в хорошем качестве
      Я дышу смотреть онлайн бесплатно в хорошем качестве


      Вы не можете начинать темы
      Вы не можете отвечать на сообщения
      Вы не можете редактировать свои сообщения
      Вы не можете удалять свои сообщения
      Вы не можете голосовать в опросах
      Вы не можете прикреплять файлы к сообщениям
      Вы можете скачивать файлы