Присоединяйтесь к нам в Telegram!, здесь всегда актуальный адрес сайта, оперативная поддержка и многое другое!!

>

5.9

iTunes

7.4

iTunes

9.4

1 сезон

1

7.4

2 сезон

7.2

iTunes

7.3

1 сезон

13

6.1

iTunes

8.3

GOG

30

ULTIMATE

pack

9.9

Лицензия

ВАЖНО

ИГРА 18+

pack

7.3

RePack

MK11

7.7

RePack

jed

7.8

RePack

fifa19

8.5

RePack

RDR2

RePack

NEED FOR SPEED™ PAYBACK

5 сезон

9 сезон

Бесстыжие 9 сезон

Все сериалы

все сериалы на PB.wtf

RePack

FAR CRY 5

Anonymous, добрый день, мы катастрофически не успеваем собрать деньги на оплату серверов, помогите нам пожалуйста 5,10,15р., для нас важна любая помощь . В качестве благодарности мы отключим Вам всю рекламу на сайте (укажите свой ник в строку Ваше имя)!

×
  
Magnet ссылка

Клоун / Clown (Джонатан Уоттс / Jon Watts) [2014, США, Канада, ужасы, драма, WEB-DL 720p, Любительский (одноголосый) [den904] kino.freetor.icu

Клоун через торрент kino.freetor.icu

Размер: 3.21 GB | Добавлен: 6 лет 8 мес. назад | Торрент скачан:91 раз
Смотреть онлайн Клоун | Скачать    Ребята, помогите собрать деньги на оплату серверов!!!

05-03-2015 19:58 Клоун Скачать торрент  

Информация о фильме

Название: Клоун

Оригинальное название: Clown

Год выпуска: 2014

Выпущено: США, Канада / Cross Creek Pictures, PS 260, Vertebra Films, Zed Filmworks

Продолжительность: 01:39:19

Озвучивание: Любительское (одноголосое) [den904] - перевод на русский язык [dsa69]

Жанр: ужасы, драма

Режиссер: Джонатан Уоттс

В ролях: Петер Стормаре, Элай Рот, Лаура Аллен, Элизабет Уитмер, Кристиан Дистефано, Джон МакДональд, Джулия А. Лонг, Чак Шамата, Сара Схеффер, Энди Пауэрс

Описание: Любящий отец специально для дня рождения сына находит костюм клоуна, но он и не подозревал, что на этот костюм наложено проклятье, которое превращает его владельца в убийцу.



Файл
Качество: WEB-DL 720p
Формат: MKV
Видео кодек: AVC | Аудио кодек: AC3
Видео: 3966 kb/s, 1280x718 , 23,976 fps
Аудио: Russian: AC3, 192 kb/s (2 ch) / 48 kHz
Аудио: English:AC3, 384 kb/s (6 ch) / 48 kHz

Format : Matroska

Format version : Version 4 / Version 2

File size : 3.21 GiB

Duration : 1h 39mn

Overall bit rate : 4 634 Kbps

Encoded date : UTC 2015-03-04 23:59:20

Writing application : mkvmerge v6.1.0 ('Old Devil') built on Mar 4 2013 09:10:42

Writing library : libebml v1.3.0 + libmatroska v1.4.0

Video

ID : 1

Format : AVC

Format/Info : Advanced Video Codec

Format profile : High@L3.1

Format settings, CABAC : No

Format settings, ReFrames : 2 frames

Codec ID : V_MPEG4/ISO/AVC

Duration : 1h 39mn

Bit rate : 3 966 Kbps

Width : 1 280 pixels

Height : 718 pixels

Display aspect ratio : 16:9

Frame rate : 24.000 fps

Color space : YUV

Chroma subsampling : 4:2:0

Bit depth : 8 bits

Scan type : Progressive

Bits/(Pixel*Frame) : 0.180

Stream size : 2.75 GiB (86%)

Language : English

Default : Yes

Forced : No

Color primaries : BT.709-5, BT.1361, IEC 61966-2-4, SMPTE RP177

Transfer characteristics : BT.709-5, BT.1361

Matrix coefficients : BT.709-5, BT.1361, IEC 61966-2-4 709, SMPTE RP177

Audio #1

ID : 2

Format : AC-3

Format/Info : Audio Coding 3

Mode extension : CM (complete main)

Format settings, Endianness : Big

Codec ID : A_AC3

Duration : 1h 39mn

Bit rate mode : Constant

Bit rate : 192 Kbps

Channel(s) : 2 channels

Channel positions : Front: L R

Sampling rate : 48.0 KHz

Bit depth : 16 bits

Compression mode : Lossy

Stream size : 136 MiB (4%)

Language : Russian

Default : Yes

Forced : No

Audio #2

ID : 3

Format : AC-3

Format/Info : Audio Coding 3

Mode extension : CM (complete main)

Format settings, Endianness : Big

Codec ID : A_AC3

Duration : 1h 39mn

Bit rate mode : Constant

Bit rate : 384 Kbps

Channel(s) : 6 channels

Channel positions : Front: L C R, Side: L R, LFE

Sampling rate : 48.0 KHz

Bit depth : 16 bits

Compression mode : Lossy

Stream size : 273 MiB (8%)

Language : English

Default : No

Forced : No

Menu

00:00:00.000 : en:Chapter 01

00:15:00.000 : en:Chapter 02

00:30:00.000 : en:Chapter 03

00:45:00.000 : en:Chapter 04

01:00:00.000 : en:Chapter 05

01:15:00.000 : en:Chapter 06
kino.freetor.icu



Скачать Клоун через торрент http://i59.fastpic.ru/big/2015/0304/24/10239b4c0940ea09d6b511584fdd3424.jpg Скачать, смотреть онлайн Клоун бесплантно в хорошем качестве Описание: Любящий отец специально для дня рождения сына находит костюм клоуна, но он и не подозревал, что на этот костюм наложено ... 10 10 5
Info! Золотая раздача, скачанное не засчитывается.
Торрент: Зарегистрирован [2015-03-05 19:58] · скачан: 91 раз
Статус: T временная
Размер: 3.21 GB
Как cкачать? Как скачать Клоун через торрент | UTorrent

% Раздел Тема Автор DL S | L
T Фильмы (мультфильмы) cо спонсором показа (Новинки AVI/MKV) [ 4.19 GB ] Клоун Восьмёрка / 8 Ball Clown [2018 WEB-DL 720p] MVO ["Синема УС"] bober100 Скачать
1 | 0
T Фильмы (мультфильмы) cо спонсором показа (Новинки AVI/MKV) [ 1.46 GB ] Клоун Восьмёрка / 8 Ball Clown [2018 WEB-DLRip] MVO ["Синема УС"] bober100 Скачать
1 | 0
T Фильмы (мультфильмы) cо спонсором показа (Новинки AVI/MKV) [ 1.37 GB ] Лицо клоуна / Clownface [2018 WEB-DLRip] MVO ["Синема УС"] bober100 Скачать
1 | 0
T Фильмы [HD 720p, 1080p] (Звук Cam, VO, DVO) [ 6.93 GB ] Клоунтергейст / Clowntergeist [2018 BDRip 1080p Любительский одноголосый Xixidok] oleg8 Скачать
1 | 0
T Релизы по Парсеру [Игры, Сериалы и Фильмы и другое...] [ 1.36 GB ] Город клоунов / ClownTown [2016 HDRip] MVO [@MUZOBOZ@] bober100 Скачать
1 | 0
Релизы по Парсеру [Игры, Сериалы и Фильмы и другое...] [ 3.49 GB ] Город клоунов / ClownTown [2016 BDRip 720p] MVO [@MUZOBOZ@] bober100 Скачать
1 | 0
Фильмы с авторской озвучкой [ 1.37 GB ] Клоун Шейкс / Shakes the Clown [1992 WEB-DLRip] [AVO] killermax2013 Скачать
1 | 0

28-11-2019 20:33  

Отключить всю рекламу на сайте

11-05-2015 00:50 Клоун Скачать торрент  

Хоть и WEB-DL за то качество очень даже не чего.kino.freetor.icu



    Дорогой пользователь! Огромная просьба, поблагодарите релизера, оцените раздачу и оставьте свои комментарий, если Вы скачали Клоун через торрент бесплатно!
    Комментировать посты могут только пользователи прошедшие не сложную регистрацию
    Показать сообщения:    

    Клоун через торрент
    Скачать бесплатно Клоун
    Клоун скачать торрент
    Клоун смотреть онлайн
    Cкачать фильм Клоун бесплатно
    Клоун скачать торрент в хорошем качестве
    Клоун смотреть онлайн бесплатно в хорошем качестве


    Вы не можете начинать темы
    Вы не можете отвечать на сообщения
    Вы не можете редактировать свои сообщения
    Вы не можете удалять свои сообщения
    Вы не можете голосовать в опросах
    Вы не можете прикреплять файлы к сообщениям
    Вы можете скачивать файлы