Присоединяйтесь к нам в Telegram!, здесь всегда актуальный адрес сайта, оперативная поддержка и многое другое!!

>

5.9

iTunes

7.4

iTunes

9.4

1 сезон

1

7.4

2 сезон

7.2

iTunes

7.3

1 сезон

13

6.1

iTunes

8.3

GOG

30

ULTIMATE

pack

9.9

Лицензия

ВАЖНО

ИГРА 18+

pack

7.3

RePack

MK11

7.7

RePack

jed

7.8

RePack

fifa19

8.5

RePack

RDR2

RePack

NEED FOR SPEED™ PAYBACK

5 сезон

9 сезон

Бесстыжие 9 сезон

Все сериалы

все сериалы на PB.wtf

RePack

FAR CRY 5

Anonymous, доброе утро, мы катастрофически не успеваем собрать деньги на оплату серверов, помогите нам пожалуйста 5,10,15р., для нас важна любая помощь . В качестве благодарности мы отключим Вам всю рекламу на сайте (укажите свой ник в строку Ваше имя)!

×
  
Magnet ссылка

Трейсеры / Tracers (Даниэль Бенмаур ) [2015, боевик, WEB-DL 720p, Любительский (двухголосый) [Пиратская студия дубляжа] kino.freetor.icu

Трейсеры через торрент kino.freetor.icu

Размер: 3.11 GB | Добавлен: 6 лет 8 мес. назад | Торрент скачан:313 раз
Смотреть онлайн Трейсеры | Скачать    Ребята, помогите собрать деньги на оплату серверов!!!

20-03-2015 20:42 Трейсеры Скачать торрент  


Трейсеры / Tracers


ИНФОРМАЦИЯ:
Год выпуска:2015
Страна: США
Жанр: боевик
Продолжительность: 01:34:05
Перевод: Любительский (двухголосый) [Пиратская студия дубляжа]
Субтитры: английские,
Режиссер: Даниэль Бенмаур

В Ролях:


Тэйлор Лотнер (Cam), Мари Авгеропулос (Nikki), Рафи Гаврон (Dylan), Адам Рэйнер (Miller), Сэм Медина (Hu), Даг Драклер (Rough man), Лучиано Акуна мл. (Tate), Доа Моа (Skinny Jeans), Эндрю Элвис Миллер (Messenger #2), Тил Кейт (Dancer), Скотт Джонсен (Detective), Амирах Ванн (Angie)

ОПИСАНИЕ:
Фильм расскажет историю парня по имени Кэм - велокурьера, находящегося в долгу перед некоей преступной группировкой. В один из дней он сбивает на своем велосипеде сексуальную незнакомку, которая соблазняет его и увлекает в мир паркура.

  • Мировая премьера:15 января 2015

    ТЕХ.ДАННЫЕ:
    Качество: WEB-DL 720p
    Формат: MKV
    Видео кодек: AVC
    Аудио кодек: AC3
    Видео: AVC, 1280x528 (2.40:1), 3867 kbps, 24 fps, 0,238 bpp
    Аудио №1: русский / AC3 / 5.1 / 48 kHz / 384 kbps / 16 bit ||
    Аудио №2: английский / AC3 / 5.1 / 48 kHz / 384 kbps / 16 bit
    Навигация по главам: есть



    Код:

    General
    Unique ID                                : 181085584311972455423020267189108605808 (0x883BD09F67B450729AF10DB018060370)
    Complete name                            : D:\Торенты\Tracers.2015.P.WEB-DL.720p.mkv
    Format                                   : Matroska
    Format version                           : Version 4 / Version 2
    File size                                : 3.11 GiB
    Duration                                 : 1h 34mn
    Overall bit rate                         : 4 730 Kbps
    Movie name                               : RARBG.COM - Tracers.2015.720p.WEB-DL.DD5.1.H264-RARBG
    Encoded date                             : UTC 2015-03-20 12:13:56
    Writing application                      : mkvmerge v7.7.0 ('Six Voices') 32bit built on Feb 28 2015 23:23:00
    Writing library                          : libebml v1.3.1 + libmatroska v1.4.2
    DURATION                                 : 01:34:05.600000000
    NUMBER_OF_FRAMES                         : 176425
    NUMBER_OF_BYTES                          : 270988800
    _STATISTICS_WRITING_APP                  : mkvmerge v7.7.0 ('Six Voices') 32bit built on Feb 28 2015 23:23:00
    _STATISTICS_WRITING_DATE_UTC             : 2015-03-20 12:13:56
    _STATISTICS_TAGS                         : BPS DURATION NUMBER_OF_FRAMES NUMBER_OF_BYTES

    Video
    ID                                       : 1
    Format                                   : AVC
    Format/Info                              : Advanced Video Codec
    Format profile                           : Main@L3.1
    Format settings, CABAC                   : No
    Format settings, ReFrames                : 2 frames
    Codec ID                                 : V_MPEG4/ISO/AVC
    Duration                                 : 1h 34mn
    Bit rate                                 : 3 868 Kbps
    Width                                    : 1 280 pixels
    Height                                   : 528 pixels
    Display aspect ratio                     : 2.40:1
    Frame rate                               : 24.000 fps
    Color space                              : YUV
    Chroma subsampling                       : 4:2:0
    Bit depth                                : 8 bits
    Scan type                                : Progressive
    Bits/(Pixel*Frame)                       : 0.238
    Stream size                              : 2.54 GiB (82%)
    Title                                    : Tracers.2015.720p.WEB-DL.DD5.1.H264-RARBG
    Language                                 : English
    Default                                  : Yes
    Forced                                   : No
    Color primaries                          : BT.709-5, BT.1361, IEC 61966-2-4, SMPTE RP177
    Transfer characteristics                 : BT.709-5, BT.1361
    Matrix coefficients                      : BT.709-5, BT.1361, IEC 61966-2-4 709, SMPTE RP177

    Audio #1
    ID                                       : 2
    Format                                   : AC-3
    Format/Info                              : Audio Coding 3
    Mode extension                           : CM (complete main)
    Codec ID                                 : A_AC3
    Duration                                 : 1h 34mn
    Bit rate mode                            : Constant
    Bit rate                                 : 384 Kbps
    Channel(s)                               : 6 channels
    Channel positions                        : Front: L C R, Side: L R, LFE
    Sampling rate                            : 48.0 KHz
    Bit depth                                : 16 bits
    Compression mode                         : Lossy
    Stream size                              : 258 MiB (8%)
    Language                                 : Russian
    Default                                  : Yes
    Forced                                   : No

    Audio #2
    ID                                       : 3
    Format                                   : AC-3
    Format/Info                              : Audio Coding 3
    Mode extension                           : CM (complete main)
    Codec ID                                 : A_AC3
    Duration                                 : 1h 34mn
    Bit rate mode                            : Constant
    Bit rate                                 : 384 Kbps
    Channel(s)                               : 6 channels
    Channel positions                        : Front: L C R, Side: L R, LFE
    Sampling rate                            : 48.0 KHz
    Bit depth                                : 16 bits
    Compression mode                         : Lossy
    Stream size                              : 258 MiB (8%)
    Title                                    : Tracers.2015.720p.WEB-DL.DD5.1.H264-RARBG
    Language                                 : English
    Default                                  : No
    Forced                                   : No

    Text
    ID                                       : 4
    Format                                   : UTF-8
    Codec ID                                 : S_TEXT/UTF8
    Codec ID/Info                            : UTF-8 Plain Text
    Language                                 : English
    Default                                  : No
    Forced                                   : No

    Menu
    00:00:00.000                             : en:Chapter 1
    00:03:37.000                             : en:Chapter 2
    00:14:34.000                             : en:Chapter 3
    00:20:05.000                             : en:Chapter 4
    00:27:01.000                             : en:Chapter 5
    00:36:06.000                             : en:Chapter 6
    00:43:15.000                             : en:Chapter 7
    00:54:59.000                             : en:Chapter 8
    01:01:59.000                             : en:Chapter 9
    01:10:37.000                             : en:Chapter 10
    01:16:49.000                             : en:Chapter 11
    01:24:53.000                             : en:Chapter 12
    01:28:28.000                             : en:Chapter 13

    Скриншоты:


    © Оформление by Ворон
    kino.freetor.icu



  • Скачать Трейсеры через торрент https://pic1.kartinco.top/images/61/ordi9.jpg Скачать, смотреть онлайн Трейсеры бесплантно в хорошем качестве Е:Фильм расскажет историю парня по имени Кэм - велокурьера, находящегося в долгу перед некоей преступной группировкой. В один из дней он ... 10 10 7
    Торрент: Зарегистрирован [2015-03-20 20:42] · скачан: 313 раз
    Статус: T временная
    Размер: 3.11 GB
    Как cкачать? Как скачать Трейсеры через торрент | UTorrent

    % Раздел Тема Автор DL S | L
    T Фильмы 2015 (Звук TS, Cam, VO, DVO) [ 1.37 GB ] Трейсеры / Tracers [2015 WEB-DLRip Любительский [Пиратская студия дубляжа] Ворон Скачать
    1 | 0
    T Фильмы 2015 (Звук TS, Cam, VO, DVO) [ 742 MB ] Трейсеры / Tracers [2015 WEBRip Любительский ] _KaisiK_ Скачать
    1 | 0
    Фильмы без перевода [ 709 MB ] Трейсеры / Tracers [2015 DVDRip] [ENG] killermax2013 Скачать
    1 | 0

    28-11-2019 20:33  

    Отключить всю рекламу на сайте

      Дорогой пользователь! Огромная просьба, поблагодарите релизера, оцените раздачу и оставьте свои комментарий, если Вы скачали Трейсеры через торрент бесплатно!
      Комментировать посты могут только пользователи прошедшие не сложную регистрацию
      Показать сообщения:    

      Трейсеры через торрент
      Скачать бесплатно Трейсеры
      Трейсеры скачать торрент
      Трейсеры смотреть онлайн
      Cкачать фильм Трейсеры бесплатно
      Трейсеры скачать торрент в хорошем качестве
      Трейсеры смотреть онлайн бесплатно в хорошем качестве


      Вы не можете начинать темы
      Вы не можете отвечать на сообщения
      Вы не можете редактировать свои сообщения
      Вы не можете удалять свои сообщения
      Вы не можете голосовать в опросах
      Вы не можете прикреплять файлы к сообщениям
      Вы можете скачивать файлы