Присоединяйтесь к нам в Telegram!, здесь всегда актуальный адрес сайта, оперативная поддержка и многое другое!!

>

5.9

iTunes

7.4

iTunes

9.4

1 сезон

1

7.4

2 сезон

7.2

iTunes

7.3

1 сезон

13

6.1

iTunes

8.3

GOG

30

ULTIMATE

pack

9.9

Лицензия

ВАЖНО

ИГРА 18+

pack

7.3

RePack

MK11

7.7

RePack

jed

7.8

RePack

fifa19

8.5

RePack

RDR2

RePack

NEED FOR SPEED™ PAYBACK

5 сезон

9 сезон

Бесстыжие 9 сезон

Все сериалы

все сериалы на PB.wtf

RePack

FAR CRY 5

Anonymous, доброе утро, мы катастрофически не успеваем собрать деньги на оплату серверов, помогите нам пожалуйста 5,10,15р., для нас важна любая помощь . В качестве благодарности мы отключим Вам всю рекламу на сайте (укажите свой ник в строку Ваше имя)!

×
  
Magnet ссылка

Милосердие / Mercy (Питер Корнвэлл / Peter Cornwell) [2014, США, ужасы, триллер, WEB-DL 1080p, Дубляж] iTunes kino.freetor.icu

Милосердие через торрент kino.freetor.icu

Раздают: 1 [ 0 KB/s ]
Размер: 2.5 GB | Добавлен: 6 лет 8 мес. назад | Торрент скачан:468 раз
Смотреть онлайн Милосердие | Скачать    Ребята, помогите собрать деньги на оплату серверов!!!

22-03-2015 04:07 Милосердие Скачать торрент  

Милосердие / Mercy


  • Год выпуска: 2014
  • Страна: США
  • Жанр: ужасы, триллер
  • Продолжительность: 01:18:38
  • Перевод: Дубляж - [Лицензия / iTunes]
  • Субтитры: русские
  • Режиссер: Питер Корнвэлл / Peter Cornwell
  • В ролях:

    Чендлер Риггз (George), Дилан МакДермотт (Jim Swann), Марк Дюпласс (Uncle Lanning), Фрэнсис О’Коннор (Rebecca), Джоэл Кортни (Buddy), Хана Хэйес (Girl Next Door), Аманда Уолш (Charlotte), Крис Браунинг (Frank), Ширли Найт (Mercy), Джо Эгендер (Wendell), Харли Грэхэм (Phoebe), Джек Картер (Mr. Bello)

  • Описание:
    Фильм снят по рассказу Стивена Кинга "Бабуля". У каждой семьи свои тайны. Вот и в семье 11-летнего Джорджа она тоже имеется. Вместе с матерью и братом он отправляется ухаживать за старой больной бабушкой, к чьим странноватым и ужасным сказкам он привык с самого детства. Но они ничто по сравнению со страшным проклятием его семьи, которое преследует их. Страшные сказки детства оживают, ведь бабуля не просто хранила их и передавала вначале детям, а потом внукам, но и была главной героиней самого страшного рассказа...
  • Рейтинг:



  • Качество: WEB-DL 1080p
  • Формат: :MKV
  • Видео кодек: AVC
  • Аудио кодек: AC3
  • Видео: 1916x796 (2.40:1), 3694 kbps, 23,976 fps, 0,101 bpp
  • Аудио №1: Русский 5.1 / 48 kHz / 384 kbps / 16 bit
  • Аудио №2: Английский / 5.1 / 48 kHz / 384 kbps / 16 bit
  • Релиз от: GEKADOL

    Код:

    General
    Unique ID                                : 197042877375281427140900059216625570560 (0x943D13E9D16068ADA2AE96DF6C589300)
    Complete name                            : I:\Mercy.2014.WEB-DL.1080p.mkv
    Format                                   : Matroska
    Format version                           : Version 2
    File size                                : 2.50 GiB
    Duration                                 : 1h 18mn
    Overall bit rate                         : 4 553 Kbps
    Movie name                               : Release Group CINEMANIA
    Encoded date                             : UTC 2015-03-21 15:24:20
    Writing application                      : mkvmerge v7.4.0 ('Circles') 64bit built on Dec 12 2014 12:19:56
    Writing library                          : libebml v1.3.0 + libmatroska v1.4.1
    DURATION                                 : 01:18:38.720000000
    NUMBER_OF_FRAMES                         : 147460
    NUMBER_OF_BYTES                          : 226498560
    _STATISTICS_WRITING_APP                  : mkvmerge v7.4.0 ('Circles') 64bit built on Dec 12 2014 12:19:56
    _STATISTICS_WRITING_DATE_UTC             : 2015-03-21 15:24:20
    _STATISTICS_TAGS                         : BPS DURATION NUMBER_OF_FRAMES NUMBER_OF_BYTES

    Video
    ID                                       : 1
    Format                                   : AVC
    Format/Info                              : Advanced Video Codec
    Format profile                           : High@L4.0
    Format settings, CABAC                   : Yes
    Format settings, ReFrames                : 5 frames
    Codec ID                                 : V_MPEG4/ISO/AVC
    Duration                                 : 1h 18mn
    Bit rate                                 : 3 695 Kbps
    Width                                    : 1 916 pixels
    Height                                   : 796 pixels
    Display aspect ratio                     : 2.40:1
    Frame rate                               : 23.976 fps
    Color space                              : YUV
    Chroma subsampling                       : 4:2:0
    Bit depth                                : 8 bits
    Scan type                                : Progressive
    Bits/(Pixel*Frame)                       : 0.101
    Stream size                              : 2.03 GiB (81%)
    Title                                    : Release Group CINEMANIA
    Language                                 : English
    Default                                  : Yes
    Forced                                   : No
    Color primaries                          : BT.709-5, BT.1361, IEC 61966-2-4, SMPTE RP177
    Transfer characteristics                 : BT.709-5, BT.1361
    Matrix coefficients                      : BT.709-5, BT.1361, IEC 61966-2-4 709, SMPTE RP177

    Audio #1
    ID                                       : 2
    Format                                   : AC-3
    Format/Info                              : Audio Coding 3
    Mode extension                           : CM (complete main)
    Codec ID                                 : A_AC3
    Duration                                 : 1h 18mn
    Bit rate mode                            : Constant
    Bit rate                                 : 384 Kbps
    Channel(s)                               : 6 channels
    Channel positions                        : Front: L C R, Side: L R, LFE
    Sampling rate                            : 48.0 KHz
    Bit depth                                : 16 bits
    Compression mode                         : Lossy
    Stream size                              : 216 MiB (8%)
    Default                                  : Yes
    Forced                                   : Yes

    Audio #2
    ID                                       : 3
    Format                                   : AC-3
    Format/Info                              : Audio Coding 3
    Mode extension                           : CM (complete main)
    Codec ID                                 : A_AC3
    Duration                                 : 1h 18mn
    Bit rate mode                            : Constant
    Bit rate                                 : 384 Kbps
    Channel(s)                               : 6 channels
    Channel positions                        : Front: L C R, Side: L R, LFE
    Sampling rate                            : 48.0 KHz
    Bit depth                                : 16 bits
    Compression mode                         : Lossy
    Stream size                              : 216 MiB (8%)
    Language                                 : English
    Default                                  : No
    Forced                                   : No

    Text
    ID                                       : 4
    Format                                   : UTF-8
    Codec ID                                 : S_TEXT/UTF8
    Codec ID/Info                            : UTF-8 Plain Text
    Language                                 : Russian
    Default                                  : Yes
    Forced                                   : Yes

    Menu
    00:00:00.000                             : en:1
    00:04:31.000                             : en:2
    00:09:00.000                             : en:3
    00:14:49.000                             : en:4
    00:19:05.000                             : en:5
    00:24:38.000                             : en:6
    00:29:11.000                             : en:7
    00:33:56.000                             : en:8
    00:38:33.000                             : en:9
    00:43:59.000                             : en:10
    00:48:39.000                             : en:11
    00:53:18.000                             : en:12
    00:58:40.000                             : en:13
    01:02:55.000                             : en:14
    01:06:17.000                             : en:15
    01:11:20.000                             : en:16
    01:15:04.000                             : en:17




    Скриншоты:



    kino.freetor.icu



  • Скачать Милосердие через торрент http://i1.imageban.ru/out/2015/03/22/a05ef4625d76149496f9ba8db19ca753.jpg Скачать, смотреть онлайн Милосердие бесплантно в хорошем качестве Описание: Фильм снят по рассказу Стивена Кинга "Бабуля". У каждой семьи свои тайны. Вот и в семье 11-летнего Джорджа она тоже имеется. ... 9.3 10 17
    Info! Золотая раздача, скачанное не засчитывается.
    Торрент: Зарегистрирован [2015-03-22 04:07] · скачан: 468 раз
    Статус: √ проверено
    Размер: 2.5 GB
    Как cкачать? Как скачать Милосердие через торрент | UTorrent

    % Раздел Тема Автор DL S | L
    Фильмы 2015 [DVDrip, WEB-DLRip, HDrip] [ 2.86 GB ] Любовь и милосердие / Love & Mercy [2015 биография музыка BDRip-AVC] Dub potroks Скачать
    1 | 0
    Фильмы [HD 720p, 1080p] (Хороший звук DUB, MVO) [ 8.85 GB ] Любовь и милосердие / Love & Mercy [2015 биография музыка BDRip 720p - / ] _KaisiK_ Скачать
    1 | 0


    Последний раз редактировалось: GEKADOL (2015-03-22 04:12), всего редактировалось 1 раз

    28-11-2019 20:33  

    Отключить всю рекламу на сайте

    22-03-2015 04:10 Милосердие Скачать торрент  

    Нормальная мистикаkino.freetor.icu



    11-12-2015 21:14 Милосердие Скачать торрент  

    Стоящий фильмец.смотреть стоит.kino.freetor.icu



      Дорогой пользователь! Огромная просьба, поблагодарите релизера, оцените раздачу и оставьте свои комментарий, если Вы скачали Милосердие через торрент бесплатно!
      Комментировать посты могут только пользователи прошедшие не сложную регистрацию
      Показать сообщения:    

      Милосердие через торрент
      Скачать бесплатно Милосердие
      Милосердие скачать торрент
      Милосердие смотреть онлайн
      Cкачать фильм Милосердие бесплатно
      Милосердие скачать торрент в хорошем качестве
      Милосердие смотреть онлайн бесплатно в хорошем качестве


      Вы не можете начинать темы
      Вы не можете отвечать на сообщения
      Вы не можете редактировать свои сообщения
      Вы не можете удалять свои сообщения
      Вы не можете голосовать в опросах
      Вы не можете прикреплять файлы к сообщениям
      Вы можете скачивать файлы