Присоединяйтесь к нам в Telegram!, здесь всегда актуальный адрес сайта, оперативная поддержка и многое другое!!

>

5.9

iTunes

7.4

iTunes

9.4

1 сезон

1

7.4

2 сезон

7.2

iTunes

7.3

1 сезон

13

6.1

iTunes

8.3

GOG

30

ULTIMATE

pack

9.9

Лицензия

ВАЖНО

ИГРА 18+

pack

7.3

RePack

MK11

7.7

RePack

jed

7.8

RePack

fifa19

8.5

RePack

RDR2

RePack

NEED FOR SPEED™ PAYBACK

5 сезон

9 сезон

Бесстыжие 9 сезон

Все сериалы

все сериалы на PB.wtf

RePack

FAR CRY 5

Anonymous, доброе утро, мы катастрофически не успеваем собрать деньги на оплату серверов, помогите нам пожалуйста 5,10,15р., для нас важна любая помощь . В качестве благодарности мы отключим Вам всю рекламу на сайте (укажите свой ник в строку Ваше имя)!

×
  
Magnet ссылка

Совсем низко / Low Down (Джефф Прайсс ) [2014, драма, биография, музыка, WEB-DL 720p, Любительский (одноголосый) [Lord32x] kino.freetor.icu

Совсем низко через торрент kino.freetor.icu

Размер: 3.75 GB | Добавлен: 6 лет 8 мес. назад | Торрент скачан:8 раз
Смотреть онлайн Совсем низко | Скачать    Ребята, помогите собрать деньги на оплату серверов!!!

26-03-2015 04:20 Совсем низко Скачать торрент  


Совсем низко / Low Down


ИНФОРМАЦИЯ:
Год выпуска:2014
Страна: США
Жанр: драма, биография, музыка
Продолжительность: 01:54:33
Перевод: Любительский (одноголосый) [Lord32x]
Субтитры: русские, английские,
Режиссер: Джефф Прайсс

В Ролях:


Лина Хиди (Sheila Albany), Эль Фаннинг (Amy Albany), Тэрин Мэннинг (Colleen), Питер Динклэйдж (Alain), Тим Дейли (Dalton), Гленн Клоуз (Gram), Джон Хоукс (Joe Albany), Калеб Лэндри Джонс (Cole), Берн Горман (Wiggenhern), Фли (Hobbs), Линда Ванг (Chinese Woman), Марк Казимир Дайневиц (Drug Dealer)

ОПИСАНИЕ:
Картина сосредоточится на взаимоотношениях героя с одиннадцатилетней дочерью и расскажет историю сквозь призму детского восприятия - как талантливый и харизматичный Элбани проводит время в коктейль-барах с эксцентричными персонажами.

  • Мировая премьера:19 января 2014

    ТЕХ.ДАННЫЕ:
    Качество: WEB-DL 720p
    Формат: MKV
    Видео кодек: AVC
    Аудио кодек: AC3
    Видео: AVC, 1280x538 (2.40:1), 3823 kbps, 24 fps, 0,231 bpp
    Аудио №1: русский / AC3 / 5.1 / 48 kHz / 384 kbps / 16 bit ||
    Аудио №2: английский / AC3 / 5.1 / 48 kHz / 384 kbps / 16 bit
    Навигация по главам: есть



    Код:

    General
    Unique ID                                : 190730834495992264830568963245020957405 (0x8F7D6C2C10A905E9B65FB7B1D0F24ADD)
    Complete name                            : D:\Торенты\Low.Down.2014.WEB-DL.720p.3.74GB.mkv
    Format                                   : Matroska
    Format version                           : Version 4 / Version 2
    File size                                : 3.75 GiB
    Duration                                 : 1h 54mn
    Overall bit rate                         : 4 684 Kbps
    Movie name                               : RARBG.COM - Low.Down.2014.720p.WEB-DL.DD5.1.H264-RARBG
    Encoded date                             : UTC 2015-03-25 15:14:48
    Writing application                      : mkvmerge v6.1.0 ('Old Devil') built on Mar  4 2013 09:10:42
    Writing library                          : libebml v1.3.0 + libmatroska v1.4.0

    Video
    ID                                       : 1
    Format                                   : AVC
    Format/Info                              : Advanced Video Codec
    Format profile                           : Main@L3.1
    Format settings, CABAC                   : No
    Format settings, ReFrames                : 2 frames
    Codec ID                                 : V_MPEG4/ISO/AVC
    Duration                                 : 1h 54mn
    Bit rate                                 : 3 823 Kbps
    Width                                    : 1 280 pixels
    Height                                   : 538 pixels
    Display aspect ratio                     : 2.40:1
    Frame rate                               : 24.000 fps
    Color space                              : YUV
    Chroma subsampling                       : 4:2:0
    Bit depth                                : 8 bits
    Scan type                                : Progressive
    Bits/(Pixel*Frame)                       : 0.231
    Stream size                              : 3.06 GiB (82%)
    Title                                    : Low.Down.2014.720p.WEB-DL.DD5.1.H264-RARBG
    Language                                 : English
    Default                                  : Yes
    Forced                                   : No
    Color primaries                          : BT.709-5, BT.1361, IEC 61966-2-4, SMPTE RP177
    Transfer characteristics                 : BT.709-5, BT.1361
    Matrix coefficients                      : BT.709-5, BT.1361, IEC 61966-2-4 709, SMPTE RP177

    Audio #1
    ID                                       : 2
    Format                                   : AC-3
    Format/Info                              : Audio Coding 3
    Mode extension                           : CM (complete main)
    Codec ID                                 : A_AC3
    Duration                                 : 1h 54mn
    Bit rate mode                            : Constant
    Bit rate                                 : 384 Kbps
    Channel(s)                               : 6 channels
    Channel positions                        : Front: L C R, Side: L R, LFE
    Sampling rate                            : 48.0 KHz
    Bit depth                                : 16 bits
    Compression mode                         : Lossy
    Stream size                              : 315 MiB (8%)
    Title                                    : Lord32x
    Language                                 : Russian
    Default                                  : No
    Forced                                   : No

    Audio #2
    ID                                       : 3
    Format                                   : AC-3
    Format/Info                              : Audio Coding 3
    Mode extension                           : CM (complete main)
    Codec ID                                 : A_AC3
    Duration                                 : 1h 54mn
    Bit rate mode                            : Constant
    Bit rate                                 : 384 Kbps
    Channel(s)                               : 6 channels
    Channel positions                        : Front: L C R, Side: L R, LFE
    Sampling rate                            : 48.0 KHz
    Bit depth                                : 16 bits
    Compression mode                         : Lossy
    Stream size                              : 315 MiB (8%)
    Title                                    : Original
    Language                                 : English
    Default                                  : Yes
    Forced                                   : No

    Text #1
    ID                                       : 4
    Format                                   : UTF-8
    Codec ID                                 : S_TEXT/UTF8
    Codec ID/Info                            : UTF-8 Plain Text
    Language                                 : Russian
    Default                                  : Yes
    Forced                                   : No

    Text #2
    ID                                       : 5
    Format                                   : UTF-8
    Codec ID                                 : S_TEXT/UTF8
    Codec ID/Info                            : UTF-8 Plain Text
    Language                                 : English
    Default                                  : No
    Forced                                   : No

    Menu
    00:00:00.000                             : en:Opening Sequence
    00:07:48.000                             : en:Here With My Daughter
    00:13:59.000                             : en:Getting Out of Here
    00:21:02.000                             : en:Everything Alright?
    00:29:36.000                             : en:Keep Playing It Clean
    00:35:36.000                             : en:It's My Dad
    00:41:47.000                             : en:Here It Is
    00:48:40.000                             : en:Are You Ready?
    00:56:43.000                             : en:Come With Me
    01:03:15.000                             : en:Cole Plays The Drums
    01:11:28.000                             : en:Part of the Act
    01:19:56.000                             : en:Still Have Your Horn?
    01:27:29.000                             : en:Psychiatric Evaluation
    01:37:13.000                             : en:Newcomers
    01:42:58.000                             : en:Sit Down by Me
    01:49:30.000                             : en:End Credits

    Скриншоты:


    © Оформление by Ворон
    kino.freetor.icu



  • Скачать Совсем низко через торрент https://pic1.kartinco.top/images/61/ordi9.jpg Скачать, смотреть онлайн Совсем низко бесплантно в хорошем качестве Е:Картина сосредоточится на взаимоотношениях героя с одиннадцатилетней дочерью и расскажет историю сквозь призму детского восприятия - как ... 10 10 1
    Торрент: Зарегистрирован [2015-03-26 04:20] · скачан: 8 раз
    Статус: T временная
    Размер: 3.75 GB
    Как cкачать? Как скачать Совсем низко через торрент | UTorrent

    % Раздел Тема Автор DL S | L
    Фильмы 2014 [DVDrip, WEB-DLRip, HDrip] [ 1.37 GB ] Совсем низко / Low Down [2014 биография музыка WEB-DLRip] Dub кэп Скачать
    1 | 0

    28-11-2019 20:33  

    Отключить всю рекламу на сайте

      Дорогой пользователь! Огромная просьба, поблагодарите релизера, оцените раздачу и оставьте свои комментарий, если Вы скачали Совсем низко через торрент бесплатно!
      Комментировать посты могут только пользователи прошедшие не сложную регистрацию
      Показать сообщения:    

      Совсем низко через торрент
      Скачать бесплатно Совсем низко
      Совсем низко скачать торрент
      Совсем низко смотреть онлайн
      Cкачать фильм Совсем низко бесплатно
      Совсем низко скачать торрент в хорошем качестве
      Совсем низко смотреть онлайн бесплатно в хорошем качестве


      Вы не можете начинать темы
      Вы не можете отвечать на сообщения
      Вы не можете редактировать свои сообщения
      Вы не можете удалять свои сообщения
      Вы не можете голосовать в опросах
      Вы не можете прикреплять файлы к сообщениям
      Вы можете скачивать файлы