Присоединяйтесь к нам в Telegram!, здесь всегда актуальный адрес сайта, оперативная поддержка и многое другое!!

>

5.9

iTunes

7.4

iTunes

9.4

1 сезон

1

7.4

2 сезон

7.2

iTunes

7.3

1 сезон

13

6.1

iTunes

8.3

Пиратка

30

ULTIMATE

pack

9.9

Лицензия

ВАЖНО

ИГРА 18+

pack

7.3

RePack

MK11

7.7

RePack

jed

7.8

RePack

fifa19

8.5

RePack

RDR2

RePack

NEED FOR SPEED™ PAYBACK

5 сезон

9 сезон

Бесстыжие 9 сезон

Все сериалы

все сериалы на PB.wtf

RePack

FAR CRY 5

Anonymous, доброй ночи, мы катастрофически не успеваем собрать деньги на оплату серверов, помогите нам пожалуйста 5,10,15р., для нас важна любая помощь . В качестве благодарности мы отключим Вам всю рекламу на сайте (укажите свой ник в строку Ваше имя)!

×
  
Magnet ссылка

Связанная / Bound (Джаред Кон) [2015 г., триллер, драма, WEB-DLRip 720p, Любительский одноголосый] kino.freetor.icu

Связанная через торрент kino.freetor.icu

Размер: 2.39 GB | Добавлен: 6 лет 6 мес. назад | Торрент скачан:149 раз
Смотреть онлайн Связанная | Скачать    Ребята, помогите собрать деньги на оплату серверов!!!

09-05-2015 09:46 Связанная Скачать торрент  

Связанная / Bound
Год выпуска: 2015
Страна: США
Жанр: триллер, драма
Продолжительность: 01:30:51
Перевод: Любительский одноголосый
Субтитры: Russian [anton1], English

Режиссер: Джаред Кон

В ролях: Брайс Дрэйпер, Morgan Obenreder, Майкл Монкс, Дэниэл Болдуин, Энди Т. Трэн, Марк МакКлейн Уилсон, Hayley McLaughlin, Крэйг Блэр, Стеффини Фроммани, Стив Су

Описание: Дочь богатого брокера недвижимости влюбляется в молодого человека, который вводит ее в мир БДСМ. Используя своё недавно пробудившееся сексуальное мастерство, она, наконец, берет контроль над собственной жизнью в свои руки.

Качество: WEB-DLRip 720p
Формат: MKV
Видео кодек: H.264
Аудио кодек: MP3, AC3
Видео: 1280x720, 3190 kbps, 23,976 fps, 0.144 bpp
Аудио#1: Русский / 2 / 44,1 kHz / 192 kbps - MP3
Аудио#2: Английский / 6 / 48 kHz /384 kbps / 16 bit - AC3








Общее
Уникальный идентификатор : 201616306287669815720115809570180323728 (0x97ADE35E2AA19034AC42254DA1D05990)
Полное имя : D:\uTorrent\Svjazannaja.2015.L1.WEB-DL.720p.mkv
Формат : Matroska
Версия формата : Version 4 / Version 2
Размер файла : 2,39 Гбайт
Продолжительность : 1 ч. 30 м.
Общий поток : 3767 Кбит/сек
Дата кодирования : UTC 2015-05-08 20:17:15
Программа кодирования : mkvmerge v6.1.0 ('Old Devil') built on Mar 4 2013 09:10:42
Библиотека кодирования : libebml v1.3.0 + libmatroska v1.4.0

Видео
Идентификатор : 1
Формат : AVC
Формат/Информация : Advanced Video Codec
Профиль формата : High@L5.1
Параметр CABAC формата : Да
Параметр ReFrames формата : 2 кадра
Идентификатор кодека : V_MPEG4/ISO/AVC
Продолжительность : 1 ч. 30 м.
Битрейт : 3190 Кбит/сек
Ширина : 1280 пикселей
Высота : 720 пикселей
Соотношение сторон : 16:9
Режим частоты кадров : Постоянный
Частота кадров : 23,976 кадра/сек
Цветовое пространство : YUV
Субдискретизация насыщенности : 4:2:0
Битовая глубина : 8 бит
Тип развёртки : Прогрессивная
Бит/(Пиксели*Кадры) : 0.144
Размер потока : 1,98 Гбайт (83%)
Библиотека кодирования : x264 core 144 r2525 40bb568
Настройки программы : cabac=1 / ref=2 / deblock=1:-3:-3 / analyse=0x3:0x113 / me=hex / subme=4 / psy=1 / psy_rd=1.00:0.00 / mixed_ref=0 / me_range=16 / chroma_me=1 / trellis=1 / 8x8dct=1 / cqm=0 / deadzone=21,11 / fast_pskip=1 / chroma_qp_offset=0 / threads=6 / lookahead_threads=1 / sliced_threads=0 / nr=0 / decimate=0 / interlaced=0 / bluray_compat=0 / constrained_intra=0 / bframes=3 / b_pyramid=0 / b_adapt=1 / b_bias=0 / direct=1 / weightb=1 / open_gop=0 / weightp=1 / keyint=240 / keyint_min=23 / scenecut=40 / intra_refresh=0 / rc_lookahead=20 / rc=2pass / mbtree=1 / bitrate=3190 / ratetol=1.0 / qcomp=0.60 / qpmin=10 / qpmax=51 / qpstep=4 / cplxblur=20.0 / qblur=0.5 / vbv_maxrate=300000 / vbv_bufsize=300000 / nal_hrd=none / filler=0 / ip_ratio=1.40 / aq=1:1.00
Язык : English
Default : Да
Forced : Нет

Аудио #1
Идентификатор : 2
Формат : MPEG Audio
Версия формата : Version 1
Профиль формата : Layer 3
Идентификатор кодека : A_MPEG/L3
Идентификатор кодека/Подсказка : MP3
Продолжительность : 1 ч. 30 м.
Вид битрейта : Постоянный
Битрейт : 192 Кбит/сек
Каналы : 2 канала
Частота : 44,1 КГц
Метод сжатия : С потерями
Размер потока : 125 Мбайт (5%)
Язык : Russian
Default : Да
Forced : Нет

Аудио #2
Идентификатор : 3
Формат : AC-3
Формат/Информация : Audio Coding 3
Расширение режима : CM (complete main)
Параметр Endianness формата : Big
Идентификатор кодека : A_AC3
Продолжительность : 1 ч. 30 м.
Вид битрейта : Постоянный
Битрейт : 384 Кбит/сек
Каналы : 6 каналов
Расположение каналов : Front: L C R, Side: L R, LFE
Частота : 48,0 КГц
Битовая глубина : 16 бит
Метод сжатия : С потерями
Размер потока : 250 Мбайт (10%)
Язык : English
Default : Нет
Forced : Нет

Текст #1
Идентификатор : 4
Формат : UTF-8
Идентификатор кодека : S_TEXT/UTF8
Идентификатор кодека/Информация : UTF-8 Plain Text
Язык : Russian
Default : Нет
Forced : Нет

Текст #2
Идентификатор : 5
Формат : UTF-8
Идентификатор кодека : S_TEXT/UTF8
Идентификатор кодека/Информация : UTF-8 Plain Text
Язык : English
Default : Нет
Forced : Нет

kino.freetor.icu



Скачать Связанная через торрент http://i48.fastpic.ru/big/2015/0508/2c/7ea90979773bc2b9e0960e80afee432c.jpg Скачать, смотреть онлайн Связанная бесплантно в хорошем качестве Описание: Дочь богатого брокера недвижимости влюбляется в молодого человека, который вводит ее в мир БДСМ. Используя своё недавно ... 8.5 10 6
Торрент: Зарегистрирован [2015-05-09 09:46] · скачан: 149 раз
Статус: T временная
Размер: 2.39 GB
Как cкачать? Как скачать Связанная через торрент | UTorrent

% Раздел Тема Автор DL S | L
T Фильмы (мультфильмы) cо спонсором показа (Новинки AVI/MKV) [ 4.18 GB ] Связанные Союзом / Union Bound [2019 история WEB-DL 720p] MVO ["Синема УС"] bober100 Скачать
1 | 0
T Фильмы (мультфильмы) cо спонсором показа (Новинки AVI/MKV) [ 1.37 GB ] Связанные Союзом / Union Bound [2019 история WEB-DLRip] MVO ["Синема УС"] bober100 Скачать
1 | 0
Порно фильмы без сюжета [ 1.93 GB ] Связанные Для Секса 3 / Bound For Sex 3 [2019 All Sex Oral Gonzo Legal Teen Facial Bondage Domination Fetish WEB-DLRip] sheker187 Скачать
1 | 0
Гонзо [ 1.3 GB ] Связанная Горячая Жена 3 / Hotwife Bound 3 [2017 All Sex Oral Gonzo Bondage Fetish Hotwife Wives WEB-DLRip 480p] Split Scenes sheker187 Скачать
1 | 0
Гонзо [ 2.11 GB ] Связанная Горячая Жена 2 / Hotwife Bound 2 [2017 All Sex Oral Gonzo Facial Bondage Domination Fetish WEB-DLRip 480p] Split Scenes sheker187 Скачать
1 | 0
Гонзо [ 1.66 GB ] Связанные Мамочки / MILF Bound [2016 All Sex Oral Gonzo Big Boobs Mature MILF Bondage Fetish WEB-DLRip 480p] Split Scenes sheker187 Скачать
1 | 0
Нетрадиционное порно [ 1.07 GB ] Связанная Школьница 4 / Schoolgirl Bound 4 [2016 18+ Teens Bondage Domination Fetish WEB-DL Оригинальный] DJASFUL Скачать
1 | 0


Последний раз редактировалось: _Fenixx_ни мужик ни баба (2015-05-10 08:08), всего редактировалось 1 раз

28-11-2019 20:33  

Отключить всю рекламу на сайте

09-05-2015 22:01 Связанная Скачать торрент  

пародия на 50 оттенков?)kino.freetor.icu



    Дорогой пользователь! Огромная просьба, поблагодарите релизера, оцените раздачу и оставьте свои комментарий, если Вы скачали Связанная через торрент бесплатно!
    Комментировать посты могут только пользователи прошедшие не сложную регистрацию
    Показать сообщения:    

    Связанная через торрент
    Скачать бесплатно Связанная
    Связанная скачать торрент
    Связанная смотреть онлайн
    Cкачать фильм Связанная бесплатно
    Связанная скачать торрент в хорошем качестве
    Связанная смотреть онлайн бесплатно в хорошем качестве


    Вы не можете начинать темы
    Вы не можете отвечать на сообщения
    Вы не можете редактировать свои сообщения
    Вы не можете удалять свои сообщения
    Вы не можете голосовать в опросах
    Вы не можете прикреплять файлы к сообщениям
    Вы можете скачивать файлы