Присоединяйтесь к нам в Telegram!, здесь всегда актуальный адрес сайта, оперативная поддержка и многое другое!!

>

5.9

iTunes

7.4

iTunes

9.4

1 сезон

1

7.4

2 сезон

7.2

iTunes

7.3

1 сезон

13

6.1

iTunes

8.3

Пиратка

30

ULTIMATE

pack

9.9

Лицензия

ВАЖНО

ИГРА 18+

pack

7.3

RePack

MK11

7.7

RePack

jed

7.8

RePack

fifa19

8.5

RePack

RDR2

RePack

NEED FOR SPEED™ PAYBACK

5 сезон

9 сезон

Бесстыжие 9 сезон

Все сериалы

все сериалы на PB.wtf

RePack

FAR CRY 5

Anonymous, доброй ночи, мы катастрофически не успеваем собрать деньги на оплату серверов, помогите нам пожалуйста 5,10,15р., для нас важна любая помощь . В качестве благодарности мы отключим Вам всю рекламу на сайте (укажите свой ник в строку Ваше имя)!

×
  
Magnet ссылка

Слендер / Always Watching: A Marble Hornets Story (Джеймс Моран ) [2015, ужасы, WEB-DL 720p, Дубляж - Лицензия / iTunes] kino.freetor.icu

Слендер через торрент kino.freetor.icu

Размер: 2.72 GB | Добавлен: 6 лет 6 мес. назад | Торрент скачан:108 раз
Смотреть онлайн Слендер | Скачать    Ребята, помогите собрать деньги на оплату серверов!!!

29-05-2015 22:23 Слендер Скачать торрент  


Слендер / Always Watching: A Marble Hornets Story
«Он придет за тобой!»

ИНФОРМАЦИЯ:
Год выпуска:2015
Страна: США
Жанр: ужасы
Продолжительность: 01:27:43
Перевод: Дубляж - [Лицензия / iTunes]
Режиссер: Джеймс Моран

В Ролях:


Крис Маркетт (Milo), Александра Брекенридж (Sara), Джейк Макдорман (Charlie MacNeel), Даг Джонс (The Operator), Майкл Бунин (Dan), Александра Холден (Rose), Морган Е. Бастин (Tara), Блэр Бомар (Nikki), Рик Отто (Lee Dylan), Шэшони Холл (Dennis Baru), Синтия Марелл (Karaoke Girl), Грэхэм Кларк (Everett)

Описание:
Съемочная группа, готовящая сюжет про исчезнувшую семью, обнаруживает коробку кассет со свидетельствами появления Слендера - страшного существа, которое можно увидеть только через объектив видеокамеры. Посмотрев пленки, они навлекают на себя ужасное проклятье: их начинает преследовать сам Слендер, от которого не спрятаться и не скрыться.

  • Мировая премьера:7 апреля 2015

    ТЕХ.ДАННЫЕ:
    Качество: WEB-DL 720p
    Формат: MKV
    Видео кодек: AVC
    Аудио кодек: AC3
    Видео: AVC, 960x720 (16:9), 3960 kbps, 25 fps, 0,229 bpp
    Аудио: русский / AC3 / 5.1 / 48 kHz / 384 kbps / 16 bit ||
    Навигация по главам: есть



    Код:

    General
    Unique ID                                : 190045684321658132528938259660198764008 (0x8EF977A913C8807893000E6C5BF9DDE8)
    Complete name                            : D:\Торенты\CLeHdeP.2015.D.WEB-DL.720p.mkv
    Format                                   : Matroska
    Format version                           : Version 4 / Version 2
    File size                                : 2.72 GiB
    Duration                                 : 1h 27mn
    Overall bit rate                         : 4 433 Kbps
    Encoded date                             : UTC 2015-05-27 18:10:06
    Writing application                      : mkvmerge v6.9.1 ('Blue Panther') 64bit built on Apr 18 2014 18:23:38
    Writing library                          : libebml v1.3.0 + libmatroska v1.4.1

    Video
    ID                                       : 1
    Format                                   : AVC
    Format/Info                              : Advanced Video Codec
    Format profile                           : Main@L3.1
    Format settings, CABAC                   : No
    Format settings, ReFrames                : 2 frames
    Codec ID                                 : V_MPEG4/ISO/AVC
    Duration                                 : 1h 27mn
    Bit rate                                 : 3 961 Kbps
    Width                                    : 960 pixels
    Height                                   : 720 pixels
    Display aspect ratio                     : 16:9
    Frame rate                               : 25.000 fps
    Color space                              : YUV
    Chroma subsampling                       : 4:2:0
    Bit depth                                : 8 bits
    Scan type                                : Progressive
    Bits/(Pixel*Frame)                       : 0.229
    Stream size                              : 2.43 GiB (89%)
    Language                                 : English
    Default                                  : Yes
    Forced                                   : No
    Color primaries                          : BT.709-5, BT.1361, IEC 61966-2-4, SMPTE RP177
    Transfer characteristics                 : BT.709-5, BT.1361
    Matrix coefficients                      : BT.709-5, BT.1361, IEC 61966-2-4 709, SMPTE RP177

    Audio
    ID                                       : 2
    Format                                   : AC-3
    Format/Info                              : Audio Coding 3
    Mode extension                           : CM (complete main)
    Codec ID                                 : A_AC3
    Duration                                 : 1h 27mn
    Bit rate mode                            : Constant
    Bit rate                                 : 384 Kbps
    Channel(s)                               : 6 channels
    Channel positions                        : Front: L C R, Side: L R, LFE
    Sampling rate                            : 48.0 KHz
    Bit depth                                : 16 bits
    Compression mode                         : Lossy
    Stream size                              : 241 MiB (9%)
    Language                                 : Russian
    Default                                  : Yes
    Forced                                   : No

    Menu
    00:00:00.000                             : en:Глава 1
    00:06:17.000                             : en:Глава 2
    00:11:53.000                             : en:Глава 3
    00:17:12.000                             : en:Глава 4
    00:23:12.000                             : en:Глава 5
    00:30:01.000                             : en:Глава 6
    00:34:55.000                             : en:Глава 7
    00:40:28.000                             : en:Глава 8
    00:44:51.000                             : en:Глава 9
    00:49:31.000                             : en:Глава 10
    00:52:23.000                             : en:Глава 11
    00:55:36.000                             : en:Глава 12
    00:58:30.000                             : en:Глава 13
    01:00:46.000                             : en:Глава 14
    01:04:23.000                             : en:Глава 15
    01:07:33.000                             : en:Глава 16
    01:11:16.000                             : en:Глава 17
    01:14:35.000                             : en:Глава 18
    01:19:07.000                             : en:Глава 19

    Скриншоты:


    © Оформление by Ворон
    kino.freetor.icu



  • Скачать Слендер через торрент https://pic1.kartinco.top/images/61/ordi9.jpg Скачать, смотреть онлайн Слендер бесплантно в хорошем качестве Описание: Съемочная группа, готовящая сюжет про исчезнувшую семью, обнаруживает коробку кассет со свидетельствами появления Слендера - ... 8.2 10 5
    Торрент: Зарегистрирован [2015-05-29 22:23] · скачан: 108 раз
    Статус: √ проверено
    Размер: 2.72 GB
    Как cкачать? Как скачать Слендер через торрент | UTorrent

    % Раздел Тема Автор DL S | L
    Фильмы 2015 [DVDrip, WEB-DLRip, HDrip] [ 1.42 GB ] Слендер / Always Watching: A Marble Hornets Story [2015 BDRip] Dub Twi7ter Скачать
    1 | 0
    Фильмы [HD 720p, 1080p] (Хороший звук DUB, MVO) [ 7.46 GB ] Слендер / Always Watching: A Marble Hornets Story [2015 BDRip 1080p - Ворон Скачать
    1 | 0
    Фильмы (WEB-DL 720p, 1080p) [ 3.32 GB ] Слендер / Always Watching: A Marble Hornets Story [2015 WEB-DL 1080p - / ] Ворон Скачать
    1 | 0
    Фильмы 2015 [DVDrip, WEB-DLRip, HDrip] [ 708 MB ] Слендер / Always Watching: A Marble Hornets Story [2015 WEB-DLRip ""] coc900 Скачать
    1 | 0
    Фильмы 2015 [DVDrip, WEB-DLRip, HDrip] [ 1.37 GB ] Слендер / Always Watching: A Marble Hornets Story [2015 WEB-DLRip - / ] Ворон Скачать
    1 | 0

    28-11-2019 20:33  

    Отключить всю рекламу на сайте

      Дорогой пользователь! Огромная просьба, поблагодарите релизера, оцените раздачу и оставьте свои комментарий, если Вы скачали Слендер через торрент бесплатно!
      Комментировать посты могут только пользователи прошедшие не сложную регистрацию
      Показать сообщения:    

      Слендер через торрент
      Скачать бесплатно Слендер
      Слендер скачать торрент
      Слендер смотреть онлайн
      Cкачать фильм Слендер бесплатно
      Слендер скачать торрент в хорошем качестве
      Слендер смотреть онлайн бесплатно в хорошем качестве


      Вы не можете начинать темы
      Вы не можете отвечать на сообщения
      Вы не можете редактировать свои сообщения
      Вы не можете удалять свои сообщения
      Вы не можете голосовать в опросах
      Вы не можете прикреплять файлы к сообщениям
      Вы можете скачивать файлы