Присоединяйтесь к нам в Telegram!, здесь всегда актуальный адрес сайта, оперативная поддержка и многое другое!!

>

5.9

iTunes

7.4

iTunes

9.4

1 сезон

1

7.4

2 сезон

7.2

iTunes

7.3

1 сезон

13

6.1

iTunes

8.3

GOG

30

ULTIMATE

pack

9.9

Лицензия

ВАЖНО

ИГРА 18+

pack

7.3

RePack

MK11

7.7

RePack

jed

7.8

RePack

fifa19

8.5

RePack

RDR2

RePack

NEED FOR SPEED™ PAYBACK

5 сезон

9 сезон

Бесстыжие 9 сезон

Все сериалы

все сериалы на PB.wtf

RePack

FAR CRY 5

Anonymous, добрый вечер, мы катастрофически не успеваем собрать деньги на оплату серверов, помогите нам пожалуйста 5,10,15р., для нас важна любая помощь . В качестве благодарности мы отключим Вам всю рекламу на сайте (укажите свой ник в строку Ваше имя)!

×
  
Magnet ссылка

Фунт плоти / Pound Of Flesh (Эрни Барбараш ) [2015, боевик, WEB-DL 720p, Любительское (двухголосное) [ColdFilm] kino.freetor.icu

Фунт плоти через торрент kino.freetor.icu

Качают: 1 [ 0 KB/s ]
Размер: 2.61 GB | Добавлен: 6 лет 5 мес. назад | Торрент скачан:188 раз
Смотреть онлайн Фунт плоти | Скачать    Ребята, помогите собрать деньги на оплату серверов!!!

01-06-2015 06:32 Фунт плоти Скачать торрент  


Фунт плоти / Pound Of Flesh


ИНФОРМАЦИЯ:
Год выпуска:2015
Страна: Канада
Жанр: боевик
Продолжительность: 01:44:39
Перевод: Любительское (двухголосное) [ColdFilm]
Режиссер: Эрни Барбараш

В Ролях:


Жан-Клод Ван Дамм, Даррен Шалави (Goran), Джон Ралстон (George), Джейсон Дж. Тобин (Liam), Кевин Ли (Club Bouncer), Шарлотта Питерс (Ana), Аки Алеонг (Kung), Темур Мамисашвили (Show fighter), Майк Лидер (Boris), Филипп Жоли (Zoltan), Эндрю Нг (Father Gabriel), Брахим Ачаббаке (Nardo)

Описание:
Однажды ночью главный герой спасает женщину, но на следующее утро просыпается в номере отеля и обнаруживает, что лежит в ванной весь в крови и без одной почки...

  • Мировая премьера:23 марта 2015

    ТЕХ.ДАННЫЕ:
    Качество: WEB-DL 720p
    Формат: MKV
    Видео кодек: AVC
    Аудио кодек: AC3, MP3
    Видео: AVC, 1280x720 (16:9), 4000 kbps, 23,976 fps, 0,163 bpp
    Аудио №1: MP3, 48.0 KHz, 2 ch, 192 Kbps, CBR ||



    Код:

    Общее
    Уникальный идентификатор                 : 31837685027695708044119298555854292051 (0x17F3B7107F57B1934CAF397FD2998453)
    Полное имя                               : D:\Торенты\Pound.of.Flesh.2015.L2.BDRip.mkv
    Формат                                   : Matroska
    Версия формата                           : Version 2
    Размер файла                             : 2,61 Гбайт
    Продолжительность                        : 1 ч. 45 м.
    Общий поток                              : 3559 Кбит/сек
    Программа кодирования                    : Lavf54.63.104
    Библиотека кодирования                   : Lavf54.63.104

    Видео
    Идентификатор                            : 1
    Формат                                   : MPEG-4 Visual
    Профиль формата                          : Simple@L1
    Параметр BVOP формата                    : Нет
    Параметр QPel формата                    : Нет
    Параметр GMC формата                     : Без точки перехода
    Параметр матрицы формата                 : Default (H.263)
    Идентификатор кодека                     : V_MPEG4/ISO/ASP
    Идентификатор кодека/Информация          : Advanced Simple Profile
    Продолжительность                        : 1 ч. 45 м.
    Битрейт                                  : 3296 Кбит/сек
    Ширина                                   : 1280 пикселей
    Высота                                   : 720 пикселей
    Соотношение сторон                       : 16:9
    Режим частоты кадров                     : Постоянный
    Частота кадров                           : 23,976 кадра/сек
    Цветовое пространство                    : YUV
    Субдискретизация насыщенности            : 4:2:0
    Битовая глубина                          : 8 бит
    Тип развёртки                            : Прогрессивная
    Метод сжатия                             : С потерями
    Бит/(Пиксели*Кадры)                      : 0.149
    Размер потока                            : 2,42 Гбайт (93%)
    Библиотека кодирования                   : Lavc54.92.100
    Default                                  : Да
    Forced                                   : Нет

    Аудио
    Идентификатор                            : 2
    Формат                                   : MPEG Audio
    Версия формата                           : Version 1
    Профиль формата                          : Layer 3
    Режим                                    : Joint stereo
    Идентификатор кодека                     : A_MPEG/L3
    Идентификатор кодека/Подсказка           : MP3
    Продолжительность                        : 1 ч. 45 м.
    Вид битрейта                             : Постоянный
    Битрейт                                  : 192 Кбит/сек
    Каналы                                   : 2 канала
    Частота                                  : 48,0 КГц
    Метод сжатия                             : С потерями
    Размер потока                            : 144 Мбайт (5%)
    Библиотека кодирования                   : LAME3.99.5
    Default                                  : Да
    Forced                                   : Нет

    Скриншоты:


    © Оформление by Ворон
    kino.freetor.icu



  • Скачать Фунт плоти через торрент https://pic1.kartinco.top/images/61/ordi9.jpg Скачать, смотреть онлайн Фунт плоти бесплантно в хорошем качестве Описание: Однажды ночью главный герой спасает женщину, но на следующее утро просыпается в номере отеля и обнаруживает, что лежит в ванной ... 7.6 10 5
    Торрент: Зарегистрирован [2015-06-01 06:32] · скачан: 188 раз
    Статус: T временная
    Размер: 2.61 GB
    Как cкачать? Как скачать Фунт плоти через торрент | UTorrent

    % Раздел Тема Автор DL S | L
    T Фильмы 2015 (Звук TS, Cam, VO, DVO) [ 1.37 GB ] Фунт плоти / Pound Of Flesh [2015 WEB-DLRip Любительское [ColdFilm] Ворон Скачать
    1 | 0
    T Фильмы (WEB-DL 720p, 1080p) [ 3.11 GB ] Фунт плоти / Pound Of Flesh [2015 WEB-DL 720p Любительский [datynet] Ворон Скачать
    1 | 0
    T Фильмы 2015 (Звук TS, Cam, VO, DVO) [ 1.28 GB ] Фунт плоти / Pound Of Flesh [2015 WEB-DLRip Любительский [datynet] Ворон Скачать
    1 | 0

    28-11-2019 20:33  

    Отключить всю рекламу на сайте

    01-06-2015 06:36 Фунт плоти Скачать торрент  

    Сэмпл: Скачать с бюджетного рипа, для оценки звука.kino.freetor.icu



      Дорогой пользователь! Огромная просьба, поблагодарите релизера, оцените раздачу и оставьте свои комментарий, если Вы скачали Фунт плоти через торрент бесплатно!
      Комментировать посты могут только пользователи прошедшие не сложную регистрацию
      Показать сообщения:    

      Фунт плоти через торрент
      Скачать бесплатно Фунт плоти
      Фунт плоти скачать торрент
      Фунт плоти смотреть онлайн
      Cкачать фильм Фунт плоти бесплатно
      Фунт плоти скачать торрент в хорошем качестве
      Фунт плоти смотреть онлайн бесплатно в хорошем качестве


      Вы не можете начинать темы
      Вы не можете отвечать на сообщения
      Вы не можете редактировать свои сообщения
      Вы не можете удалять свои сообщения
      Вы не можете голосовать в опросах
      Вы не можете прикреплять файлы к сообщениям
      Вы можете скачивать файлы