Присоединяйтесь к нам в Telegram!, здесь всегда актуальный адрес сайта, оперативная поддержка и многое другое!!

>

5.9

iTunes

7.4

iTunes

9.4

1 сезон

1

7.4

2 сезон

7.2

iTunes

7.3

1 сезон

13

6.1

iTunes

8.3

GOG

30

ULTIMATE

pack

9.9

Лицензия

ВАЖНО

ИГРА 18+

pack

7.3

RePack

MK11

7.7

RePack

jed

7.8

RePack

fifa19

8.5

RePack

RDR2

RePack

NEED FOR SPEED™ PAYBACK

5 сезон

9 сезон

Бесстыжие 9 сезон

Все сериалы

все сериалы на PB.wtf

RePack

FAR CRY 5

Anonymous, доброе утро, мы катастрофически не успеваем собрать деньги на оплату серверов, помогите нам пожалуйста 5,10,15р., для нас важна любая помощь . В качестве благодарности мы отключим Вам всю рекламу на сайте (укажите свой ник в строку Ваше имя)!

×
  
Magnet ссылка

Проси меня о чём угодно / Ask Me Anything (Эллисон Барнетт ) [2014, триллер, драма, детектив,WEB-DL 720p, Любительский (одноголосый) [Алексей Толмачев] kino.freetor.icu

Проси меня о чём угодно через торрент kino.freetor.icu

Размер: 3 GB | Добавлен: 6 лет 5 мес. назад | Торрент скачан:101 раз
Смотреть онлайн Проси меня о чём угодно | Скачать    Ребята, помогите собрать деньги на оплату серверов!!!

28-06-2015 13:38 Проси меня о чём угодно Скачать торрент  


Проси меня о чём угодно / Ask Me Anything


ИНФОРМАЦИЯ:
Год выпуска: 2014
Страна: США
Жанр: триллер, драма, детектив
Продолжительность: 01:38:41
Перевод: Любительский (одноголосый) [Алексей Толмачев]
Режиссер: Эллисон Барнетт

В Ролях:


Бритт Робертсон (Katie Kampenfelt), Молли Хэйгэн (Caroline Kampenfelt), Энди Бакли (Mark Aubichon), Роберт Патрик (Doug Kampenfelt), Зулейха Робинсон (Afreen), Кристиан Слэйтер (Paul Spooner), Кимберли Уильямс-Пэйсли (Margaret Spooner), Макс Карвер (Rory), Джастин Лонг (Dan Gallo), Мартин Шин (Glenn Warburg), Шэрон Оми (Ms. Matsuo), Джина Мантенья (Jade)

Описание:
Кэти Кэмпенфелт берет годичный перерыв перед колледжем, чтобы найти себя. Все свои приключения и сокровенные тайны она публикует в анонимном блоге. Но в итоге из-под ее бесстрашного повествования начинают проявляться части ее мрачного прошлого...

  • Мировая премьера:19 апреля 2014

    ТЕХ.ДАННЫЕ:
    Качество: WEB-DL 720p
    Формат: MKV
    Видео кодек: AVC
    Аудио кодек: AC3, MP3
    Видео: AVC, 1280x720 (16:9), 3750 kbps, 23,976 fps, 0,170 bpp
    Аудио №1: русский / MP3 / 2.0 / 48 kHz / 128 kbps / || [Алексей Толмачев]
    Аудио №2: английский / AC3 / 5.1 / 48 kHz / 384 kbps / 16 bit
    Навигация по главам: есть



    Код:

    General
    Unique ID                                : 202836304754673034352077562378612665407 (0x9898D9EFAFF30A58858D9F6BD4E46C3F)
    Complete name                            : D:\Торенты\Ask.Me.Anything.2014.L1.WEB-DL.720p.mkv
    Format                                   : Matroska
    Format version                           : Version 4 / Version 2
    File size                                : 3.00 GiB
    Duration                                 : 1h 38mn
    Overall bit rate                         : 4 349 Kbps
    Encoded date                             : UTC 2015-06-28 10:13:46
    Writing application                      : mkvmerge v6.5.0 ('Isn't she lovely') built on Oct 20 2013 12:50:05
    Writing library                          : libebml v1.3.0 + libmatroska v1.4.1

    Video
    ID                                       : 1
    Format                                   : AVC
    Format/Info                              : Advanced Video Codec
    Format profile                           : High@L3.1
    Format settings, CABAC                   : No
    Format settings, ReFrames                : 2 frames
    Codec ID                                 : V_MPEG4/ISO/AVC
    Duration                                 : 1h 38mn
    Bit rate                                 : 3 750 Kbps
    Width                                    : 1 280 pixels
    Height                                   : 720 pixels
    Display aspect ratio                     : 16:9
    Frame rate                               : 23.976 fps
    Color space                              : YUV
    Chroma subsampling                       : 4:2:0
    Bit depth                                : 8 bits
    Scan type                                : Progressive
    Bits/(Pixel*Frame)                       : 0.170
    Stream size                              : 2.59 GiB (86%)
    Language                                 : English
    Default                                  : Yes
    Forced                                   : No
    Color primaries                          : BT.709-5, BT.1361, IEC 61966-2-4, SMPTE RP177
    Transfer characteristics                 : BT.709-5, BT.1361
    Matrix coefficients                      : BT.709-5, BT.1361, IEC 61966-2-4 709, SMPTE RP177

    Audio #1
    ID                                       : 2
    Format                                   : MPEG Audio
    Format version                           : Version 1
    Format profile                           : Layer 3
    Mode                                     : Joint stereo
    Codec ID                                 : A_MPEG/L3
    Codec ID/Hint                            : MP3
    Duration                                 : 1h 38mn
    Bit rate mode                            : Constant
    Bit rate                                 : 128 Kbps
    Channel(s)                               : 2 channels
    Sampling rate                            : 48.0 KHz
    Compression mode                         : Lossy
    Stream size                              : 90.4 MiB (3%)
    Language                                 : Russian
    Default                                  : Yes
    Forced                                   : No

    Audio #2
    ID                                       : 3
    Format                                   : AC-3
    Format/Info                              : Audio Coding 3
    Mode extension                           : CM (complete main)
    Codec ID                                 : A_AC3
    Duration                                 : 1h 38mn
    Bit rate mode                            : Constant
    Bit rate                                 : 384 Kbps
    Channel(s)                               : 6 channels
    Channel positions                        : Front: L C R, Side: L R, LFE
    Sampling rate                            : 48.0 KHz
    Bit depth                                : 16 bits
    Compression mode                         : Lossy
    Stream size                              : 271 MiB (9%)
    Language                                 : English
    Default                                  : No
    Forced                                   : No

    Menu
    00:00:00.000                             : en:Chapter 01
    00:10:40.000                             : en:Chapter 02
    00:21:14.000                             : en:Chapter 03
    00:32:06.000                             : en:Chapter 04
    00:40:57.000                             : en:Chapter 05
    00:51:45.000                             : en:Chapter 06
    01:02:04.000                             : en:Chapter 07
    01:11:20.000                             : en:Chapter 08
    01:20:47.000                             : en:Chapter 09
    01:29:08.000                             : en:Chapter 10
    01:35:43.000                             : en:Chapter 11

    Скриншоты:


    © Оформление by Ворон
    kino.freetor.icu
    !Ворон писал(а):

    Сэмпл с бюджетного рипа (AVI)



  • Скачать Проси меня о чём угодно через торрент https://pic1.kartinco.top/images/61/ordi9.jpg Скачать, смотреть онлайн Проси меня о чём угодно бесплантно в хорошем качестве Описание: Кэти Кэмпенфелт берет годичный перерыв перед колледжем, чтобы найти себя. Все свои приключения и сокровенные тайны она публикует ... 10 10 7
    Торрент: Зарегистрирован [2015-06-28 13:38] · скачан: 101 раз
    Статус: √ проверено
    Размер: 3 GB
    Как cкачать? Как скачать Проси меня о чём угодно через торрент | UTorrent

    % Раздел Тема Автор DL S | L
    Фильмы 2014 (Звук TS, Cam, VO, DVO) [ 1.17 GB ] Проси меня о чём угодно / Ask Me Anything [2014 WEB-DLRip Любительский [Алексей Толмачев] Ворон Скачать
    1 | 0

    28-11-2019 20:33  

    Отключить всю рекламу на сайте

      Дорогой пользователь! Огромная просьба, поблагодарите релизера, оцените раздачу и оставьте свои комментарий, если Вы скачали Проси меня о чём угодно через торрент бесплатно!
      Комментировать посты могут только пользователи прошедшие не сложную регистрацию
      Показать сообщения:    

      Проси меня о чём угодно через торрент
      Скачать бесплатно Проси меня о чём угодно
      Проси меня о чём угодно скачать торрент
      Проси меня о чём угодно смотреть онлайн
      Cкачать фильм Проси меня о чём угодно бесплатно
      Проси меня о чём угодно скачать торрент в хорошем качестве
      Проси меня о чём угодно смотреть онлайн бесплатно в хорошем качестве


      Вы не можете начинать темы
      Вы не можете отвечать на сообщения
      Вы не можете редактировать свои сообщения
      Вы не можете удалять свои сообщения
      Вы не можете голосовать в опросах
      Вы не можете прикреплять файлы к сообщениям
      Вы можете скачивать файлы