Присоединяйтесь к нам в Telegram!, здесь всегда актуальный адрес сайта, оперативная поддержка и многое другое!!

>

5.9

iTunes

7.4

iTunes

9.4

1 сезон

1

7.4

2 сезон

7.2

iTunes

7.3

1 сезон

13

6.1

iTunes

8.3

GOG

30

ULTIMATE

pack

9.9

Лицензия

ВАЖНО

ИГРА 18+

pack

7.3

RePack

MK11

7.7

RePack

jed

7.8

RePack

fifa19

8.5

RePack

RDR2

RePack

NEED FOR SPEED™ PAYBACK

5 сезон

9 сезон

Бесстыжие 9 сезон

Все сериалы

все сериалы на PB.wtf

RePack

FAR CRY 5

Anonymous, добрый вечер, мы катастрофически не успеваем собрать деньги на оплату серверов, помогите нам пожалуйста 5,10,15р., для нас важна любая помощь . В качестве благодарности мы отключим Вам всю рекламу на сайте (укажите свой ник в строку Ваше имя)!

×
  
Magnet ссылка

Я стану лучше / Ombline (Стефан Каз) [2012, драма, WEB-DL 720p, Профессиональный (многоголосый) kino.freetor.icu

Я стану лучше через торрент kino.freetor.icu

Размер: 2.3 GB | Добавлен: 6 лет 4 мес. назад | Торрент скачан:53 раза
Смотреть онлайн Я стану лучше | Скачать    Ребята, помогите собрать деньги на оплату серверов!!!

16-07-2015 06:08 Я стану лучше Скачать торрент  


Я стану лучше / Ombline


ИНФОРМАЦИЯ:
Год выпуска:2012
Страна: Франция, Бельгия
Жанр: драма
Продолжительность: 01:40:01
Перевод: Профессиональный (многоголосый)
Режиссер: Стефан Каз

В Ролях:


Мелани Тьерри (Ombline Morin), Натали Бекю (Tatiana, la surveillante), Корина Масьеро (Sonia), Катрин Сале (Isabelle), Дуня Хдия (Yamina), Гаэлль Женте (Laurence), Марта Кортон Винальс (Rita), Патрис Буре (Victor Maynial), Николь Вальберг (Anne-Marie Maynial), Тишу Кане (Faïza), Мари-Тереза Изар (Emilie), Бабетида Саджо (Surveillante Elsa)

Описание:
За нападение на полицейского двадцатилетняя Омблина приговорена к трем годам заключения. Оказавшись в тюрьме и теряя надежду на светлое будущее, девушка неожиданно узнает, что беременна. Спустя 8 месяцев у нее рождается мальчик Лукас - луч надежды. Но по закону Франции Омблина может быть рядом с сыном только первые полтора года. Не желая мириться с этим, девушка решает убедить судью, что в состоянии воспитывать своего сына после освобождения.

  • Мировая премьера:8 июля 2012

    ТЕХ.ДАННЫЕ:
    Качество: WEB-DL 720p
    Формат: MKV
    Видео кодек: AVC
    Аудио кодек: AC3
    Видео: AVC, 1280x692 (1.850), 3030 kbps, 24 fps, 0,071 bpp
    Аудио: AC3 / 2.0 / 48 kHz / 192 kbps / 16 bit


    Код:

    General
    Unique ID                                : 230543784109012395720527550512069451304 (0xAD711E239AE1D751A5250B06E7199E28)
    Complete name                            : D:\Торенты\Ya.stany.ly4she.2012.P.WBDL.720p.mkv
    Format                                   : Matroska
    Format version                           : Version 4 / Version 2
    File size                                : 2.30 GiB
    Duration                                 : 1h 40mn
    Overall bit rate                         : 3 288 Kbps
    Encoded date                             : UTC 2015-07-15 16:50:27
    Writing application                      : mkvmerge v6.8.0 ('Theme for Great Cities') 64bit built on Mar  2 2014 21:34:26
    Writing library                          : libebml v1.3.0 + libmatroska v1.4.1

    Video
    ID                                       : 1
    Format                                   : AVC
    Format/Info                              : Advanced Video Codec
    Format profile                           : High@L4.0
    Format settings, CABAC                   : Yes
    Format settings, ReFrames                : 8 frames
    Codec ID                                 : V_MPEG4/ISO/AVC
    Duration                                 : 1h 40mn
    Bit rate                                 : 3 031 Kbps
    Width                                    : 1 280 pixels
    Height                                   : 692 pixels
    Display aspect ratio                     : 1.850
    Frame rate mode                          : Variable
    Frame rate                               : 48.000 fps
    Color space                              : YUV
    Chroma subsampling                       : 4:2:0
    Bit depth                                : 8 bits
    Scan type                                : Progressive
    Bits/(Pixel*Frame)                       : 0.071
    Stream size                              : 2.12 GiB (92%)
    Writing library                          : x264 core 142 r2455 021c0dc
    Encoding settings                        : cabac=1 / ref=8 / deblock=1:-1:-1 / analyse=0x3:0x133 / me=umh / subme=9 / psy=1 / psy_rd=1.00:0.15 / mixed_ref=1 / me_range=16 / chroma_me=1 / trellis=2 / 8x8dct=1 / cqm=0 / deadzone=21,11 / fast_pskip=1 / chroma_qp_offset=-3 / threads=18 / lookahead_threads=1 / sliced_threads=0 / nr=0 / decimate=1 / interlaced=0 / bluray_compat=0 / constrained_intra=0 / bframes=3 / b_pyramid=2 / b_adapt=2 / b_bias=0 / direct=3 / weightb=1 / open_gop=0 / weightp=2 / keyint=96 / keyint_min=9 / scenecut=40 / intra_refresh=0 / rc_lookahead=60 / rc=crf / mbtree=1 / crf=17.0 / qcomp=0.60 / qpmin=0 / qpmax=69 / qpstep=4 / vbv_maxrate=3600 / vbv_bufsize=3600 / crf_max=0.0 / nal_hrd=none / filler=0 / ip_ratio=1.40 / aq=1:1.00
    Default                                  : Yes
    Forced                                   : No

    Audio
    ID                                       : 2
    Format                                   : AC-3
    Format/Info                              : Audio Coding 3
    Mode extension                           : CM (complete main)
    Codec ID                                 : A_AC3
    Duration                                 : 1h 40mn
    Bit rate mode                            : Constant
    Bit rate                                 : 192 Kbps
    Channel(s)                               : 2 channels
    Channel positions                        : Front: L R
    Sampling rate                            : 48.0 KHz
    Bit depth                                : 16 bits
    Compression mode                         : Lossy
    Delay relative to video                  : -83ms
    Stream size                              : 137 MiB (6%)
    Default                                  : Yes
    Forced                                   : No

    Скриншоты:


    © Оформление by Ворон
    kino.freetor.icu



  • Скачать Я стану лучше через торрент https://pic1.kartinco.top/images/61/ordi9.jpg Скачать, смотреть онлайн Я стану лучше бесплантно в хорошем качестве Описание: За нападение на полицейского двадцатилетняя Омблина приговорена к трем годам заключения. Оказавшись в тюрьме и теряя надежду на ... 10 10 5
    Торрент: Зарегистрирован [2015-07-16 06:08] · скачан: 53 раз
    Статус: √ проверено
    Размер: 2.3 GB
    Как cкачать? Как скачать Я стану лучше через торрент | UTorrent

    % Раздел Тема Автор DL S | L
    Фильмы 2012 [ 1.46 GB ] Я стану лучше / Ombline [2012 WEB-DLRip Ворон Скачать
    1 | 0

    28-11-2019 20:33  

    Отключить всю рекламу на сайте

      Дорогой пользователь! Огромная просьба, поблагодарите релизера, оцените раздачу и оставьте свои комментарий, если Вы скачали Я стану лучше через торрент бесплатно!
      Комментировать посты могут только пользователи прошедшие не сложную регистрацию
      Показать сообщения:    

      Я стану лучше через торрент
      Скачать бесплатно Я стану лучше
      Я стану лучше скачать торрент
      Я стану лучше смотреть онлайн
      Cкачать фильм Я стану лучше бесплатно
      Я стану лучше скачать торрент в хорошем качестве
      Я стану лучше смотреть онлайн бесплатно в хорошем качестве


      Вы не можете начинать темы
      Вы не можете отвечать на сообщения
      Вы не можете редактировать свои сообщения
      Вы не можете удалять свои сообщения
      Вы не можете голосовать в опросах
      Вы не можете прикреплять файлы к сообщениям
      Вы можете скачивать файлы