Присоединяйтесь к нам в Telegram!, здесь всегда актуальный адрес сайта, оперативная поддержка и многое другое!!

>

5.9

iTunes

7.4

iTunes

9.4

1 сезон

1

7.4

2 сезон

7.2

iTunes

7.3

1 сезон

13

6.1

iTunes

8.3

GOG

30

ULTIMATE

pack

9.9

Лицензия

ВАЖНО

ИГРА 18+

pack

7.3

RePack

MK11

7.7

RePack

jed

7.8

RePack

fifa19

8.5

RePack

RDR2

RePack

NEED FOR SPEED™ PAYBACK

5 сезон

9 сезон

Бесстыжие 9 сезон

Все сериалы

все сериалы на PB.wtf

RePack

FAR CRY 5

Anonymous, добрый день, мы катастрофически не успеваем собрать деньги на оплату серверов, помогите нам пожалуйста 5,10,15р., для нас важна любая помощь . В качестве благодарности мы отключим Вам всю рекламу на сайте (укажите свой ник в строку Ваше имя)!

×
  
Magnet ссылка

Лондонские каникулы / A Royal Night Out (Джулиан Джаррольд) [2015, триллер, драма, мелодрама, WEB-DL 720p, Дубляж] iTunes kino.freetor.icu

Лондонские каникулы через торрент kino.freetor.icu

Размер: 2.87 GB | Добавлен: 6 лет 4 мес. назад | Торрент скачан:109 раз
Смотреть онлайн Лондонские каникулы | Скачать    Ребята, помогите собрать деньги на оплату серверов!!!

22-07-2015 18:45 Лондонские каникулы Скачать торрент  


Лондонские каникулы / A Royal Night Out


ИНФОРМАЦИЯ:
Год выпуска:2015
Страна: Великобритания
Жанр: драма, мелодрама, комедия
Продолжительность: 01:32:50
Перевод: Дубляж - [Лицензия / iTunes]
Режиссер: Джулиан Джаррольд

В Ролях:


Сара Гадон (Princess Elizabeth), Эмили Уотсон (Queen Elizabeth), Джек Рейнор (Jack), Руперт Эверетт (King George), Бел Паули (Princess Margaret), Роджер Аллам, Джек Гордон (Lieutenant Burridge), Анастасия Харрольд (Fountain Girl), Джек Лэски (Captain Pryce), Рут Шин (Jack's Mum), Лоуренс Спэллман (Captain Ashworth), Мария Ли Метэрингем (Lord Stan's Girl)

Описание:
Во время Дня Победы в Европе в 1945 году принцессе Маргарет и ее сестре Элизабет разрешают покинуть пределы Букингемского дворца на ночь, там они сталкиваются с романтическими приключениями и опасностью...

  • Мировая премьера:14 мая 2015

    ТЕХ.ДАННЫЕ:
    Качество: WEB-DL 720p
    Формат: MKV
    Видео кодек: AVC
    Аудио кодек: AC3
    Видео: AVC, 960x532@1280х532, 3950 kbps, 25 fps, 0,309 bpp
    Аудио: русский / AC3 / 5.1 / 48 kHz / 384 kbps / 16 bit ||
    Навигация по главам: есть


    Код:

    General
    Unique ID                                : 237907262381377147438039480358937321280 (0xB2FB45A5C5F16D269C6993BF7E085F40)
    Complete name                            : D:\Торенты\1ondonskie.Kan1kuli.2015.D.WEB-DL.720p.mkv
    Format                                   : Matroska
    Format version                           : Version 4 / Version 2
    File size                                : 2.87 GiB
    Duration                                 : 1h 32mn
    Overall bit rate                         : 4 423 Kbps
    Encoded date                             : UTC 2015-07-22 17:03:38
    Writing application                      : mkvmerge v6.9.1 ('Blue Panther') 64bit built on Apr 18 2014 18:23:38
    Writing library                          : libebml v1.3.0 + libmatroska v1.4.1

    Video
    ID                                       : 1
    Format                                   : AVC
    Format/Info                              : Advanced Video Codec
    Format profile                           : Main@L3.1
    Format settings, CABAC                   : No
    Format settings, ReFrames                : 2 frames
    Codec ID                                 : V_MPEG4/ISO/AVC
    Duration                                 : 1h 32mn
    Bit rate                                 : 3 951 Kbps
    Width                                    : 960 pixels
    Height                                   : 532 pixels
    Display aspect ratio                     : 2.40:1
    Frame rate                               : 25.000 fps
    Color space                              : YUV
    Chroma subsampling                       : 4:2:0
    Bit depth                                : 8 bits
    Scan type                                : Progressive
    Bits/(Pixel*Frame)                       : 0.309
    Stream size                              : 2.56 GiB (89%)
    Language                                 : English
    Default                                  : Yes
    Forced                                   : No
    Color primaries                          : BT.709-5, BT.1361, IEC 61966-2-4, SMPTE RP177
    Transfer characteristics                 : BT.709-5, BT.1361
    Matrix coefficients                      : BT.709-5, BT.1361, IEC 61966-2-4 709, SMPTE RP177

    Audio
    ID                                       : 2
    Format                                   : AC-3
    Format/Info                              : Audio Coding 3
    Mode extension                           : CM (complete main)
    Codec ID                                 : A_AC3
    Duration                                 : 1h 32mn
    Bit rate mode                            : Constant
    Bit rate                                 : 384 Kbps
    Channel(s)                               : 6 channels
    Channel positions                        : Front: L C R, Side: L R, LFE
    Sampling rate                            : 48.0 KHz
    Bit depth                                : 16 bits
    Compression mode                         : Lossy
    Stream size                              : 255 MiB (9%)
    Language                                 : Russian
    Default                                  : Yes
    Forced                                   : No

    Menu
    00:00:00.000                             : en:Глава 1
    00:06:04.000                             : en:Глава 2
    00:11:18.000                             : en:Глава 3
    00:16:51.000                             : en:Глава 4
    00:21:13.000                             : en:Глава 5
    00:27:22.000                             : en:Глава 6
    00:32:00.000                             : en:Глава 7
    00:37:06.000                             : en:Глава 8
    00:42:22.000                             : en:Глава 9
    00:47:47.000                             : en:Глава 10
    00:53:32.000                             : en:Глава 11
    00:59:32.000                             : en:Глава 12
    01:05:10.000                             : en:Глава 13
    01:11:13.000                             : en:Глава 14
    01:15:57.000                             : en:Глава 15
    01:20:34.000                             : en:Глава 16
    01:25:46.000                             : en:Глава 17

    Скриншоты:


    © Оформление by Ворон
    kino.freetor.icu



  • Скачать Лондонские каникулы через торрент https://pic1.kartinco.top/images/61/ordi9.jpg Скачать, смотреть онлайн Лондонские каникулы бесплантно в хорошем качестве Описание: Во время Дня Победы в Европе в 1945 году принцессе Маргарет и ее сестре Элизабет разрешают покинуть пределы Букингемского дворца ... 9.7 10 7
    Торрент: Зарегистрирован [2015-07-22 18:45] · скачан: 109 раз
    Статус: √ проверено
    Размер: 2.87 GB
    Как cкачать? Как скачать Лондонские каникулы через торрент | UTorrent

    % Раздел Тема Автор DL S | L
    Фильмы 2014 [DVDrip, WEB-DLRip, HDrip] [ 1.42 GB ] Лондонские каникулы / A Royal Night Out [2014 BDRip-AVC] Dub potroks Скачать
    1 | 0
    Фильмы (WEB-DL 720p, 1080p) [ 3.14 GB ] Лондонские каникулы / A Royal Night Out [2015 WEB-DL 1080p ] Ворон Скачать
    1 | 0

    28-11-2019 20:33  

    Отключить всю рекламу на сайте

    28-07-2015 14:52 Лондонские каникулы Скачать торрент  

    Жанр: триллер, драма, мелодрама sarcastic я то думал это комедия kino.freetor.icu
    K-Lexx- писал(а):

    Исправил.



      Дорогой пользователь! Огромная просьба, поблагодарите релизера, оцените раздачу и оставьте свои комментарий, если Вы скачали Лондонские каникулы через торрент бесплатно!
      Комментировать посты могут только пользователи прошедшие не сложную регистрацию
      Показать сообщения:    

      Лондонские каникулы через торрент
      Скачать бесплатно Лондонские каникулы
      Лондонские каникулы скачать торрент
      Лондонские каникулы смотреть онлайн
      Cкачать фильм Лондонские каникулы бесплатно
      Лондонские каникулы скачать торрент в хорошем качестве
      Лондонские каникулы смотреть онлайн бесплатно в хорошем качестве


      Вы не можете начинать темы
      Вы не можете отвечать на сообщения
      Вы не можете редактировать свои сообщения
      Вы не можете удалять свои сообщения
      Вы не можете голосовать в опросах
      Вы не можете прикреплять файлы к сообщениям
      Вы можете скачивать файлы