Присоединяйтесь к нам в Telegram!, здесь всегда актуальный адрес сайта, оперативная поддержка и многое другое!!

>

5.9

iTunes

7.4

iTunes

9.4

1 сезон

1

7.4

2 сезон

7.2

iTunes

7.3

1 сезон

13

6.1

iTunes

8.3

Пиратка

30

ULTIMATE

pack

9.9

Лицензия

ВАЖНО

ИГРА 18+

pack

7.3

RePack

MK11

7.7

RePack

jed

7.8

RePack

fifa19

8.5

RePack

RDR2

RePack

NEED FOR SPEED™ PAYBACK

5 сезон

9 сезон

Бесстыжие 9 сезон

Все сериалы

все сериалы на PB.wtf

RePack

FAR CRY 5

Anonymous, доброй ночи, мы катастрофически не успеваем собрать деньги на оплату серверов, помогите нам пожалуйста 5,10,15р., для нас важна любая помощь . В качестве благодарности мы отключим Вам всю рекламу на сайте (укажите свой ник в строку Ваше имя)!

×
  
Magnet ссылка

Эшби / Ashby (Тони МакНамара) [2015, драма, мелодрама, комедия, WEB-DL 1080p, Дубляж] iTunes kino.freetor.icu

Эшби через торрент kino.freetor.icu

Размер: 3.49 GB | Добавлен: 6 лет 2 мес. назад | Торрент скачан:621 раз
Смотреть онлайн Эшби | Скачать    Ребята, помогите собрать деньги на оплату серверов!!!

28-09-2015 12:41 Эшби Скачать торрент  


Эшби / Ashby
««Просто киллер»»

ИНФОРМАЦИЯ:
Год выпуска:2015
Страна: США
Жанр: драма, мелодрама, комедия, криминал
Продолжительность: 01:42:45
Перевод: Дубляж - [Лицензия / iTunes]
Режиссер: Тони МакНамара

В Ролях:


Микки Рурк (Ashby Holt), Нат Вулф (Ed Wallis), Эмма Робертс (Eloise), Сара Силверман (June Wallis), Кевин Данн (Coach Bruton), Захари Найтон (Father Ted), Майкл Лернер (Entwhistle), Джон Инос III (Coach Wally), Стив Култер (Peter Black), Том Ноуики (Kenrick), Адам Алдеркс (Valchek), Сет Даусмен (Garry Smits)

Описание:
Поступив в университет, Эд начинает дружить со своим соседом Эшби - бывшим киллером ЦРУ, которому осталось жить всего несколько месяцев...

  • Мировая премьера:19 апреля 2015

    ТЕХ.ДАННЫЕ:
    Качество: WEB-DL 1080p
    Формат: MKV
    Видео: AVC, 1920x804 (2.40:1), 4384 kbps, 24 fps, 0,118 bpp
    Аудио: русский / AC3 / 5.1 / 48 kHz / 384 kbps / 16 bit ||


    General
    Unique ID : 196991036306164781548699071283265170068 (0x943317F388D51920918D10CACBE26A94)
    Complete name : D:\Торенты\EWby.2O15.D.WEB-DL.1080p.mkv
    Format : Matroska
    Format version : Version 4 / Version 2
    File size : 3.49 GiB
    Duration : 1h 42mn
    Overall bit rate : 4 866 Kbps
    Encoded date : UTC 2015-09-28 10:17:48
    Writing application : mkvmerge v7.2.0 ('On Every Street') 64bit built on Sep 13 2014 15:52:10
    Writing library : libebml v1.3.0 + libmatroska v1.4.1

    Video
    ID : 1
    Format : AVC
    Format/Info : Advanced Video Codec
    Format profile : High@L4.0
    Format settings, CABAC : Yes
    Format settings, ReFrames : 5 frames
    Codec ID : V_MPEG4/ISO/AVC
    Duration : 1h 42mn
    Bit rate : 4 385 Kbps
    Width : 1 920 pixels
    Height : 804 pixels
    Display aspect ratio : 2.40:1
    Frame rate : 24.000 fps
    Color space : YUV
    Chroma subsampling : 4:2:0
    Bit depth : 8 bits
    Scan type : Progressive
    Bits/(Pixel*Frame) : 0.118
    Stream size : 3.15 GiB (90%)
    Language : English
    Default : Yes
    Forced : No
    Color primaries : BT.709-5, BT.1361, IEC 61966-2-4, SMPTE RP177
    Transfer characteristics : BT.709-5, BT.1361
    Matrix coefficients : BT.709-5, BT.1361, IEC 61966-2-4 709, SMPTE RP177

    Audio
    ID : 2
    Format : AC-3
    Format/Info : Audio Coding 3
    Mode extension : CM (complete main)
    Codec ID : A_AC3
    Duration : 1h 42mn
    Bit rate mode : Constant
    Bit rate : 384 Kbps
    Channel(s) : 6 channels
    Channel positions : Front: L C R, Side: L R, LFE
    Sampling rate : 48.0 KHz
    Bit depth : 16 bits
    Compression mode : Lossy
    Stream size : 282 MiB (8%)
    Language : Russian
    Default : Yes
    Forced : No
    Скриншоты:


    © Оформление by Ворон
    kino.freetor.icu



  • Скачать Эшби через торрент https://pic1.kartinco.top/images/61/ordi9.jpg Скачать, смотреть онлайн Эшби бесплантно в хорошем качестве Описание: Поступив в университет, Эд начинает дружить со своим соседом Эшби - бывшим киллером ЦРУ, которому осталось жить всего несколько ... 9.9 10 19
    Info! Золотая раздача, скачанное не засчитывается.
    Торрент: Зарегистрирован [2015-09-28 12:41] · скачан: 621 раз
    Статус: √ проверено
    Размер: 3.49 GB
    Как cкачать? Как скачать Эшби через торрент | UTorrent

    % Раздел Тема Автор DL S | L
    Фильмы 2015 [DVDrip, WEB-DLRip, HDrip] [ 1.41 GB ] Эшби / Ashby [2015 BDRip-AVC от sokol_ok] Dub sokol_ok Скачать
    2 | 0
    Фильмы 2015 [DVDrip, WEB-DLRip, HDrip] [ 2.13 GB ] Эшби / Ashby [2015 BDRip-AVC от sokol_ok] Dub sokol_ok Скачать
    2 | 0
    Фильмы [HD 720p, 1080p] (Хороший звук DUB, MVO) [ 4.19 GB ] Эшби / Ashby [2015 BDRip 720p от _denis_100 / NNNB] - _denis_100 Скачать
    1 | 0
    R.G. Resident & PiratVoice - Фильмы, Видео [ 7.82 GB ] Эшби / Ashby [2015 BDRip 1080p ] schultz Скачать
    1 | 0
    Фильмы 2015 [DVDrip, WEB-DLRip, HDrip] [ 1.41 GB ] Эшби / Ashby [2015 BDRip] Dub Twi7ter Скачать
    1 | 0
    Фильмы [HD 720p, 1080p] (Хороший звук DUB, MVO) [ 10.18 GB ] Эшби / Ashby [2015 BDRip 1080p] ] -Lexx- Скачать
    1 | 0
    Фильмы 2015 [DVDrip, WEB-DLRip, HDrip] [ 2.13 GB ] Эшби / Ashby [2015 BDRip-AVC] Dub potroks Скачать
    1 | 0

    28-11-2019 20:33  

    Отключить всю рекламу на сайте

    28-09-2015 13:33 Эшби Скачать торрент  

    на редкость-хороший фильм-спасибо раздающемуkino.freetor.icu



    28-09-2015 15:35 Эшби Скачать торрент  

    Рурк где бы ни снимался, всегда со спичкой во рту))kino.freetor.icu



    03-10-2015 19:27 Эшби Скачать торрент  

    у рурка походу спичка пришита во всех фильмахkino.freetor.icu



      мат в чате, выдал Pavlin

    05-12-2015 18:49 Эшби Скачать торрент  

    Рурк любитель спичек.kino.freetor.icu



      Дорогой пользователь! Огромная просьба, поблагодарите релизера, оцените раздачу и оставьте свои комментарий, если Вы скачали Эшби через торрент бесплатно!
      Комментировать посты могут только пользователи прошедшие не сложную регистрацию
      Показать сообщения:    

      Эшби через торрент
      Скачать бесплатно Эшби
      Эшби скачать торрент
      Эшби смотреть онлайн
      Cкачать фильм Эшби бесплатно
      Эшби скачать торрент в хорошем качестве
      Эшби смотреть онлайн бесплатно в хорошем качестве


      Вы не можете начинать темы
      Вы не можете отвечать на сообщения
      Вы не можете редактировать свои сообщения
      Вы не можете удалять свои сообщения
      Вы не можете голосовать в опросах
      Вы не можете прикреплять файлы к сообщениям
      Вы можете скачивать файлы