Присоединяйтесь к нам в Telegram!, здесь всегда актуальный адрес сайта, оперативная поддержка и многое другое!!

>

5.9

iTunes

7.4

iTunes

9.4

1 сезон

1

7.4

2 сезон

7.2

iTunes

7.3

1 сезон

13

6.1

iTunes

8.3

Пиратка

30

ULTIMATE

pack

9.9

Лицензия

ВАЖНО

ИГРА 18+

pack

7.3

RePack

MK11

7.7

RePack

jed

7.8

RePack

fifa19

8.5

RePack

RDR2

RePack

NEED FOR SPEED™ PAYBACK

5 сезон

9 сезон

Бесстыжие 9 сезон

Все сериалы

все сериалы на PB.wtf

RePack

FAR CRY 5

Anonymous, доброй ночи, мы катастрофически не успеваем собрать деньги на оплату серверов, помогите нам пожалуйста 5,10,15р., для нас важна любая помощь . В качестве благодарности мы отключим Вам всю рекламу на сайте (укажите свой ник в строку Ваше имя)!

×
  
Magnet ссылка

Сюрприз / De Surprise (Майк ван Дим) [2015, мелодрама, комедия, WEB-DL 720p, Дубляж - Лицензия / iTunes] kino.freetor.icu

Сюрприз через торрент kino.freetor.icu

Размер: 3.08 GB | Добавлен: 6 лет 1 мес. назад | Торрент скачан:109 раз
Смотреть онлайн Сюрприз | Скачать    Ребята, помогите собрать деньги на оплату серверов!!!

08-10-2015 06:35 Сюрприз Скачать торрент  

Сюрприз / De Surprise


Год выпуска: 2015
Страна: Нидерланды, Бельгия, Германия, Ирландия
Жанр: мелодрама, комедия
Продолжительность: 01:41:21
Перевод: Дубляж - [Лицензия / iTunes]
Режиссер: Майк ван Дим
В ролях:

Йерун ван Конингсбругге (Jacob van Zuylen de With), Джорджина Вербаан (Anne de Koning), Ян Деклер (Cornald Muller), Генри Гудман (Mr. Jones), Анкур Баль (Asif), Навид Чоудри (Moshin), Оливер Гатс (Halim), Ронни Джатти (Khuram), Элизабет Андерсен (Mother), Тамар Баруч (Marissa de la Rue), Михил Бланкваардт (Truckdriver), Пьер Бокма (Security Van Zuylen Foundation)

Описание:
Эксцентричный мультимиллионер подписывает соглашение о «прекращении» своей жизни. Выбирая гроб для похорон, он знакомится с подписавшей аналогичный договор молодой женщиной. Проблемы возникают после того, как они влюбляются друг в друга и пытаются расторгнуть заключенные контракты...
Рейтинг:


Качество: WEB-DL 720p
Формат: MKV
Видео кодек: AVC
Аудио кодек: AC3
Видео: AVC, 1280x536 (2.40:1), 3876 kbps, 24 fps, 0,235 bpp
Аудио: русский / AC3 / 5.1 / 48 kHz / 384 kbps / 16 bit
Навигация по главам: есть
Дополнительно: Сохранены оригинальные чаптеры.

Код:

Формат                                   : Matroska
Версия формата                           : Version 4 / Version 2
Размер файла                             : 3,08 Гбайт
Продолжительность                        : 1 ч. 41 м.
Общий поток                              : 4347 Кбит/сек
Дата кодирования                         : UTC 2015-10-07 10:02:12
Программа кодирования                    : mkvmerge v6.9.1 ('Blue Panther') 64bit built on Apr 18 2014 18:23:38
Библиотека кодирования                   : libebml v1.3.0 + libmatroska v1.4.1

Видео
Идентификатор                            : 1
Формат                                   : AVC
Формат/Информация                        : Advanced Video Codec
Профиль формата                          : Main@L3.1
Параметр CABAC формата                   : Нет
Параметр ReFrames формата                : 2 кадра
Идентификатор кодека                     : V_MPEG4/ISO/AVC
Продолжительность                        : 1 ч. 41 м.
Битрейт                                  : 3876 Кбит/сек
Ширина                                   : 1280 пикселей
Высота                                   : 536 пикселей
Соотношение сторон                       : 2,40:1
Режим частоты кадров                     : Постоянный
Частота кадров                           : 24,000 кадра/сек
Цветовое пространство                    : YUV
Субдискретизация насыщенности            : 4:2:0
Битовая глубина                          : 8 бит
Тип развёртки                            : Прогрессивная
Бит/(Пиксели*Кадры)                      : 0.235
Размер потока                            : 2,74 Гбайт (89%)
Язык                                     : English
Default                                  : Да
Forced                                   : Нет
colour_range                             : Limited
Основные цвета                           : BT.709
Характеристики трансфера                 : BT.709
Коэффициенты матрицы                     : BT.709

Аудио
Идентификатор                            : 2
Формат                                   : AC-3
Формат/Информация                        : Audio Coding 3
Расширение режима                        : CM (complete main)
Параметр Endianness формата              : Big
Идентификатор кодека                     : A_AC3
Продолжительность                        : 1 ч. 41 м.
Вид битрейта                             : Постоянный
Битрейт                                  : 384 Кбит/сек
Каналы                                   : 6 каналов
Расположение каналов                     : Front: L C R, Side: L R, LFE
Частота                                  : 48,0 КГц
Битовая глубина                          : 16 бит
Метод сжатия                             : С потерями
Размер потока                            : 278 Мбайт (9%)
Язык                                     : Russian
Default                                  : Да
Forced                                   : Нет

Меню
00:00:00.000                             : en:Глава 1
00:08:27.000                             : en:Глава 2
00:13:29.000                             : en:Глава 3
00:23:17.000                             : en:Глава 4
00:29:17.000                             : en:Глава 5
00:39:21.000                             : en:Глава 6
00:46:45.000                             : en:Глава 7
00:56:44.000                             : en:Глава 8
01:06:25.000                             : en:Глава 9
01:15:33.000                             : en:Глава 10
01:23:52.000                             : en:Глава 11
01:29:48.000                             : en:Глава 12



kino.freetor.icu



Скачать Сюрприз через торрент http://i1.imageban.ru/out/2015/10/08/b295d50b35d4889896f8b3ef588f99f3.png Скачать, смотреть онлайн Сюрприз бесплантно в хорошем качестве Описание: Эксцентричный мультимиллионер подписывает соглашение о «прекращении» своей жизни. Выбирая гроб для похорон, он знакомится с ... 10 10 5
Торрент: Зарегистрирован [2015-10-08 06:35] · скачан: 109 раз
Статус: √ проверено
Размер: 3.08 GB
Как cкачать? Как скачать Сюрприз через торрент | UTorrent

% Раздел Тема Автор DL S | L
Порно фильмы без сюжета [ 1.38 GB ] Маслянистый Сюрприз / An Oily Surprise [2020 All Sex Massage Oiled MILF WEB-DL] bashai5 Скачать
1 | 1
Порно фильмы без сюжета [ 3.84 GB ] Сюрприз / Surprise [2020 All Sex Feature WEB-DL] bashai5 Скачать
1 | 0
Фильмы 2015 [DVDrip, WEB-DLRip, HDrip] [ 1.45 GB ] Сюрприз / De Surprise [2015 HDRip $-DRON-$ Скачать
1 | 0
R.G. Resident & PiratVoice - Фильмы, Видео [ 1.46 GB ] Сюрприз / De Surprise [2015 HDRip-AVC многоголосый От R.G.Resident White Smoke Скачать
1 | 0
Гонзо [ 2.08 GB ] Сперма Сюрприз Мамочек / MILF Cum Surprise [2015 All Sex Big Boobs Cumshots Gonzo Mature MILF DVDRip 406p] sheker187 Скачать
1 | 0
Фильмы 2015 [DVDrip, WEB-DLRip, HDrip] [ 1.46 GB ] Сюрприз / De Surprise [2015 WEB-DLRip] ] -Lexx- Скачать
1 | 0
Фильмы (WEB-DL 720p, 1080p) [ 3.47 GB ] Сюрприз / De Surprise [2015 WEB-DL 1080p] ] -Lexx- Скачать
1 | 0

28-11-2019 20:33  

Отключить всю рекламу на сайте

20-11-2015 20:02 Сюрприз Скачать торрент  

мне понравилсяkino.freetor.icu



    Дорогой пользователь! Огромная просьба, поблагодарите релизера, оцените раздачу и оставьте свои комментарий, если Вы скачали Сюрприз через торрент бесплатно!
    Комментировать посты могут только пользователи прошедшие не сложную регистрацию
    Показать сообщения:    

    Сюрприз через торрент
    Скачать бесплатно Сюрприз
    Сюрприз скачать торрент
    Сюрприз смотреть онлайн
    Cкачать фильм Сюрприз бесплатно
    Сюрприз скачать торрент в хорошем качестве
    Сюрприз смотреть онлайн бесплатно в хорошем качестве


    Вы не можете начинать темы
    Вы не можете отвечать на сообщения
    Вы не можете редактировать свои сообщения
    Вы не можете удалять свои сообщения
    Вы не можете голосовать в опросах
    Вы не можете прикреплять файлы к сообщениям
    Вы можете скачивать файлы