Anonymous, доброе утро, присоединяйтесь к нам в Telegram!, здесь всегда актуальный адрес сайта, оперативная поддержка и многое другое!

>

5.5

iTunes

7.4

iTunes

7.9

iTunes

1

7.7

1 сезон

6.8

iTunes

7.3

1 сезон

13

6.7

1 сезон

8.3

RePack

30

ULTIMATE

pack

9.9

Лицензия

ВАЖНО

ИГРА 18+

pack

7.3

RePack

MK11

7.7

RePack

jed

7.8

RePack

fifa19

8.5

RePack

RDR2

RePack

NEED FOR SPEED™ PAYBACK

4 сезон

9 сезон

Бесстыжие 9 сезон

Все сериалы

все сериалы на PB.wtf

RePack

FAR CRY 5

Anonymous, доброе утро, мы катастрофически не успеваем собрать деньги на оплату серверов, помогите нам пожалуйста 5,10,15р., для нас важна любая помощь . В качестве благодарности мы отключим Вам всю рекламу на сайте (укажите свой ник в строку Ваше имя)!

×
  
Magnet ссылка

Стрела / Arrow / Сезон: 4 / Серии 1-22 из 23 (Джон Беринг / John Behring, Гай Норман Би / Guy Norman Bee, Ник Копус / Nick Copus) [2015, США, фантастика, боевик, драма, WEB-DLRip-AVC] MVO [NewStudio] kino.freetor.icu

Стрела через торрент kino.freetor.icu

Размер: 19.57 GB | Добавлен: 5 лет 5 мес. назад | Торрент скачан:14 раз
Смотреть онлайн Стрела | Скачать    Ребята, помогите собрать деньги на оплату серверов!!!

09-10-2015 01:54 Стрела Скачать торрент  


Стрела / Arrow

«Судьба оставляет свой отпечаток»


  • Год выпуска: 2015
  • Страна: США, Berlanti Productions, Berlanti Television, DC Entertainment, DC Entertainment, Warner Bros. Television
  • Жанр: фантастика, боевик, драма, криминал, детектив, приключения
  • Продолжительность: 00:42:48 (Серия)
  • Перевод: Профессиональный многоголосый закадровый
  • Режиссер: Джон Беринг / John Behring, Гай Норман Би / Guy Norman Bee, Ник Копус / Nick Copus
  • В ролях:

    Стивен Амелл (Oliver Queen), Кэти Кэссиди (Laurel Lance), Дэвид Рэмси (John Diggle), Уилла Холланд (Thea Queen), Эмили Бетт Рикардс (Felicity Smoak), Пол Блекторн (Quentin Lance), Сюзанна Томпсон (Moira Queen), Ману Беннетт (Slade Wilson), Колтон Хэйнс (Roy Harper), Кейти Лотц (Sara Lance), Колин Доннелл (Tommy Merlyn), Джон Барроумен (Malcolm Merlyn)

  • Описание:
    После кораблекрушения плейбой миллиардер Оливер Куин пропадает и считается погибшим в течение пяти лет, после чего его обнаруживают живым на затерянном острове в Тихом океане. Когда он возвращается домой в Старлинг-Сити, его преданная мать Мойра, столь любимая сестра Теа и лучший друг Томми приветствуют его дома, но они видят, что Оливер изменился после испытаний на острове. Хотя Оливер скрывает правду о человеке, которым он стал...
  • Рейтинг:



  • Качество: WEB-DLRip-AVC
  • Формат: :MPEG-4
  • Видео кодек: AVC
  • Аудио кодек: AC-3
  • Видео: 2365 Кбит/сек, 1024*576 (16:9), в 23,976 кадра/сек, AVC
  • Аудио №1: Русский 384 Кбит/сек, 48,0 КГц, 16 бит, 6 каналов, AC-3
  • Аудио №2: Английский 384 Кбит/сек, 48,0 КГц, 16 бит, 6 каналов, AC-3
  • Релиз от: GEKADOL

    Код:

    Внимание! Раздача ведётся путём добавления новых серий; при каждом добавлении создаётся новый торрент. Чтобы начать докачку новой серии, пользователям необходимо сделать следующее:
    (1) остановить скачивание,
    (2) удалить старый торрент у себя из клиента (старые серии удалять не надо),
    (3) скачать новый торрент и запустить его у себя в клиенте вместо старого, при этом указать клиенту путь в старую папку куда и должно происходить скачивание новых серий.
    Ваш клиент при этом должен произвести хеширование (проверку) старой папки (если не производит сам - помогите ему сделать это), и будет докачивать только те серии которых у вас ещё нет. Старые серии при этом не удаляются, а продолжают раздаваться!
    Eсли вы уже удалили старые серии, то предотвратить повторную закачку старых серий можно, отжав галочку в соответсвующих местах при запуске нового торрента. По возможности, желательно не удалять старые серии как можно дольше чтобы релизёр не столько продолжал раздавать старые серии, а смог сконцентрироваться на новых.


    Код:

    Общее
    Полное имя                               : H:\Стрела (Сезон 4)\Arrow..s04e01.WEB-DLRip-AVC.NewStudio.TV.mp4
    Формат                                   : MPEG-4
    Профиль формата                          : Base Media
    Идентификатор кодека                     : isom
    Размер файла                             : 954 Мбайт
    Продолжительность                        : 42 м.
    Общий поток                              : 3138 Кбит/сек
    Программа кодирования                    : XviD4PSP 7.0.163
    encoding_info                            : MATROSKA / WEBM > MP4 / H264 > X264 CBR 2500kbps HQ1 / AC3 > AC3 CBR 384kbps / AC3 > AC3 CBR 384kbps

    Видео
    Идентификатор                            : 1
    Формат                                   : AVC
    Формат/Информация                        : Advanced Video Codec
    Профиль формата                          : High@L3.1
    Параметр CABAC формата                   : Да
    Параметр ReFrames формата                : 4 кадра
    Идентификатор кодека                     : avc1
    Идентификатор кодека/Информация          : Advanced Video Coding
    Продолжительность                        : 42 м.
    Битрейт                                  : 2365 Кбит/сек
    Номинальный битрейт                      : 2500 Кбит/сек
    Ширина                                   : 1024 пикселя
    Высота                                   : 576 пикселей
    Соотношение сторон                       : 16:9
    Режим частоты кадров                     : Постоянный
    Частота кадров                           : 23,976 кадра/сек
    Цветовое пространство                    : YUV
    Субдискретизация насыщенности            : 4:2:0
    Битовая глубина                          : 8 бит
    Тип развёртки                            : Прогрессивная
    Бит/(Пиксели*Кадры)                      : 0.167
    Размер потока                            : 719 Мбайт (75%)
    Библиотека кодирования                   : x264 core 148 r2579M 73ae2d1
    Настройки программы                      : cabac=1 / ref=3 / deblock=1:-1:-1 / analyse=0x3:0x133 / me=hex / subme=7 / psy=1 / psy_rd=1,00:0,20 / mixed_ref=1 / me_range=16 / chroma_me=1 / trellis=1 / 8x8dct=1 / cqm=0 / deadzone=21,11 / fast_pskip=1 / chroma_qp_offset=-3 / threads=6 / lookahead_threads=1 / sliced_threads=0 / nr=0 / decimate=1 / interlaced=0 / bluray_compat=0 / constrained_intra=0 / bframes=3 / b_pyramid=2 / b_adapt=2 / b_bias=0 / direct=3 / weightb=1 / open_gop=0 / weightp=2 / keyint=230 / keyint_min=23 / scenecut=40 / intra_refresh=0 / rc_lookahead=40 / rc=cbr / mbtree=1 / bitrate=2500 / ratetol=1,0 / qcomp=0,60 / qpmin=0 / qpmax=69 / qpstep=4 / vbv_maxrate=2500 / vbv_bufsize=2500 / nal_hrd=none / filler=0 / ip_ratio=1,40 / aq=1:1,00
    Язык                                     : English
    Цветовой диапазон                        : Limited
    Основные цвета                           : BT.709
    Характеристики трансфера                 : BT.709
    Коэффициенты матрицы                     : BT.709

    Аудио #1
    Идентификатор                            : 2
    Формат                                   : AC-3
    Формат/Информация                        : Audio Coding 3
    Расширение режима                        : CM (complete main)
    Параметр Endianness формата              : Big
    Идентификатор кодека                     : ac-3
    Продолжительность                        : 42 м.
    Вид битрейта                             : Постоянный
    Битрейт                                  : 384 Кбит/сек
    Каналы                                   : 6 каналов
    Расположение каналов                     : Front: L C R, Side: L R, LFE
    Частота                                  : 48,0 КГц
    Битовая глубина                          : 16 бит
    Метод сжатия                             : С потерями
    Размер потока                            : 117 Мбайт (12%)
    Язык                                     : Russian

    Аудио #2
    Идентификатор                            : 3
    Формат                                   : AC-3
    Формат/Информация                        : Audio Coding 3
    Расширение режима                        : CM (complete main)
    Параметр Endianness формата              : Big
    Идентификатор кодека                     : ac-3
    Продолжительность                        : 42 м.
    Вид битрейта                             : Постоянный
    Битрейт                                  : 384 Кбит/сек
    Каналы                                   : 6 каналов
    Расположение каналов                     : Front: L C R, Side: L R, LFE
    Частота                                  : 48,0 КГц
    Битовая глубина                          : 16 бит
    Метод сжатия                             : С потерями
    Размер потока                            : 117 Мбайт (12%)
    Язык                                     : English




    Скриншоты:
    скриншот   скриншот   скриншот   скриншот   скриншот   скриншот   скриншот  
    скриншот  

    Раздача ведётся путём добавления новых серий. Добавлена 22 серия (21.05.2016).Просьба перекачать торрент файл.

    kino.freetor.icu



  • Скачать Стрела через торрент https://pic1.kartinco.top/images/10/yddos.jpg Скачать, смотреть онлайн Стрела бесплантно в хорошем качестве Описание: После кораблекрушения плейбой миллиардер Оливер Куин пропадает и считается погибшим в течение пяти лет, после чего его ... 9.2 10 32
    Info! Золотая раздача, скачанное не засчитывается.
    Торрент: Зарегистрирован [2016-05-21 01:54] · скачан: 14 раз
    Статус: √ проверено
    Размер: 19.57 GB
    Как cкачать? Как скачать Стрела через торрент | UTorrent

    % Раздел Тема Автор DL S | L
    Стрела [ 12.03 GB ] Стрела 4 сезон / Серия 1 - 22 из 23 / Arrow [2015 WEB-DLRip многоголосый LostFilm] alexst Скачать
    1 | 0


    Последний раз редактировалось: GEKADOL (2016-05-21 01:54), всего редактировалось 16 раз(а)

    28-11-2019 20:33  

    Отключить всю рекламу на сайте

    26-11-2015 04:33 Стрела Скачать торрент  

    беремkino.freetor.icu



    02-12-2015 20:41 Стрела Скачать торрент  

    Когда 8серия появится?kino.freetor.icu



    03-12-2015 07:08 Стрела Скачать торрент  

    Ты подвёл этот город))))kino.freetor.icu



    04-12-2015 08:10 Стрела Скачать торрент  

    У всех звук в видео работает?kino.freetor.icu



    11-12-2015 12:47 Стрела Скачать торрент  

    NeuroNougamiCom писал(а):

    У всех звук в видео работает?

    Все работает!!!kino.freetor.icu



    11-12-2015 12:51 Стрела Скачать торрент  

    9 серия появилась.УРА!Мой люб.сериал.kino.freetor.icu



    08-03-2016 04:59 Стрела Скачать торрент  

    а когда 16 серия будет ?kino.freetor.icu



    19-03-2016 02:52 Стрела Скачать торрент  

    все никак руки не дойдут до этого сериала(kino.freetor.icu



    08-04-2016 14:59 Стрела Скачать торрент  

    ну и где 18 серия? в раздаче 17 толькоkino.freetor.icu



    08-04-2016 17:22 Стрела Скачать торрент  

    Гы гы... я в начале тоже не увидел 18 ую)))))))kino.freetor.icu



    23-04-2016 23:23 Стрела Скачать торрент  

    Фантастичность портит этот сериал в целом годный kino.freetor.icu



      Дорогой пользователь! Огромная просьба, поблагодарите релизера, оцените раздачу и оставьте свои комментарий, если Вы скачали Стрела через торрент бесплатно!
      Комментировать посты могут только пользователи прошедшие не сложную регистрацию
      Показать сообщения:    

      Стрела через торрент
      Скачать бесплатно Стрела
      Стрела скачать торрент
      Стрела смотреть онлайн
      Cкачать фильм Стрела бесплатно
      Стрела скачать торрент в хорошем качестве
      Стрела смотреть онлайн бесплатно в хорошем качестве


      Вы не можете начинать темы
      Вы не можете отвечать на сообщения
      Вы не можете редактировать свои сообщения
      Вы не можете удалять свои сообщения
      Вы не можете голосовать в опросах
      Вы не можете прикреплять файлы к сообщениям
      Вы можете скачивать файлы