Anonymous, доброй ночи, присоединяйтесь к нам в Telegram!, здесь всегда актуальный адрес сайта, оперативная поддержка и многое другое!

>

5.6

iTunes

7.4

iTunes

5.7

MVO

1

7.7

1 сезон

6.8

iTunes

7.3

1 сезон

13

6.7

1 сезон

8.3

RePack

30

ULTIMATE

pack

9.9

Лицензия

ВАЖНО

ИГРА 18+

pack

7.3

RePack

MK11

7.7

RePack

jed

7.8

RePack

fifa19

8.5

RePack

RDR2

RePack

NEED FOR SPEED™ PAYBACK

4 сезон

9 сезон

Бесстыжие 9 сезон

Все сериалы

все сериалы на PB.wtf

RePack

FAR CRY 5

Anonymous, доброй ночи, мы катастрофически не успеваем собрать деньги на оплату серверов, помогите нам пожалуйста 5,10,15р., для нас важна любая помощь . В качестве благодарности мы отключим Вам всю рекламу на сайте (укажите свой ник в строку Ваше имя)!

×
  
Magnet ссылка

Cтрела / Arrow / Сезон: 4 / Серии: 1-14 из 23 (Дэвид Баррет, Дэвид Наттер ) [2015 г., фантастика, драма, боевик, приключения, комикс WEB-DL 720p] MVO NewStudio kino.freetor.icu

Cтрела через торрент kino.freetor.icu

Размер: 19.83 GB | Добавлен: 5 лет 7 мес. назад | Торрент скачан:9 раз
Смотреть онлайн Cтрела | Скачать    Ребята, помогите собрать деньги на оплату серверов!!!

09-10-2015 09:20 Cтрела Скачать торрент  

Cтрела / Arrow
Год выпуска: 2015
Страна: США / Berlanti Productions, Berlanti Television, DC Entertainment, DC Entertainment, Warner Bros. Television
Жанр: фантастика, драма, боевик, приключения, комикс
Продолжительность cерии: ~00:43:00.

  • Перевод: Профессиональный (многоголосый закадровый) NewStudio ;
  • Русские субтитры: нет
  • Оригинальная аудиодорожка: английская

Режиссер: Дэвид Баррет, Дэвид Наттер
В ролях: Стивен Амелл, Кэти Кэссиди, Колин Доннелл, Дэвид Рэмси, Уилла Холлэнд, Сюзанна Томпсон, Пол Блекторн, Колин Сэлмон, Эмили Бетт Рикардс, Энни Айлонзех, Себастьян Данн, Байрон Манн, Роджер Р. Кросс, Мэррет Грин, Ли Винсент, Джон Барроумен, Лесли Ивен
Описание: Избалованный плейбой Оливер Квин, считавшийся погибшим в кораблекрушении вместе с отцом и девушкой, на самом деле пять лет выживал на затерянном острове в Тихом океане, где пересмотрел свой взгляд на жизнь. За это время мир сильно изменился: его мать вышла замуж за нового владельца империи Квинов, младшая сестра подсела на наркотики, а бывшая девушка стала встречаться с лучшим другом Томми Мерлином. Вернувшись к цивилизации, Оливер решил избавить родной город от преступности, создав неуловимого лучника Стрелу.

  • Тип релиза: WEB-DL 720p
  • Формат: MKV
  • Видео кодек: AVC | Аудио кодек: AC3
  • Видео: 1280x718, 23.976 fps, ~3883 Kbps (0.217 bit/pixel)
  • Аудио 1: Russian: 48 kHz, AC3, 6 ch, ~384 kbps avg
  • Аудио 2: English: 48 kHz, AC3, 6 ch, ~384 kbps avg
  • Субтитры: нет
Внимание! Раздача ведётся путём добавления новых серий; при каждом добавлении создаётся новый торрент-файл. Чтобы начать дозакачку новой серии, пользователям необходимо сделать следующее:
(1) остановить скачивание,
(2) удалить старый торрент-файл у себя из клиента (старые серии удалять не надо),
(3) скачать новый торрент-файл и запустить его у себя в клиенте вместо старого, при этом указать клиенту путь в старую папку куда и должно происходить скачивание новых серий.
Ваш клиент при этом должен произвести хеширование (проверку) старой папки (если не производит сам - помогите ему сделать это), и будет докачивать только те серии которых у вас ещё нет. Старые серии при этом не удаляются, а продолжают раздаваться!
Eсли вы уже удалили старые серии, то предотвратить повторную закачку старых серий можно, отжав галочку в соответствующих местах при запуске нового торрента.
Общее
Уникальный идентификатор : 222722510329584312118548416278596501656 (0xA78ECB91C97D95C4B78D54C68DE14098)
Полное имя : C:\торрент\Arrow..s04.720p.WEBDL.NewStudio.TV\Arrow..s04e01.720p.WEBDL.NewStudio.TV.mkv
Формат : Matroska
Версия формата : Version 4 / Version 2
Размер файла : 1,41 Гбайт
Продолжительность : 42 м.
Общий поток : 4746 Кбит/сек
Дата кодирования : UTC 2015-10-08 21:12:41
Программа кодирования : mkvmerge v8.3.0 ('Over the Horizon') 64bit
Библиотека кодирования : libebml v1.3.1 + libmatroska v1.4.2
DURATION : 00:42:28.832000000
NUMBER_OF_FRAMES : 79651
NUMBER_OF_BYTES : 122343936
_STATISTICS_WRITING_APP : mkvmerge v8.3.0 ('Over the Horizon') 64bit
_STATISTICS_WRITING_DATE_UTC : 2015-10-08 21:12:41
_STATISTICS_TAGS : BPS DURATION NUMBER_OF_FRAMES NUMBER_OF_BYTES

Видео
Идентификатор : 1
Формат : AVC
Формат/Информация : Advanced Video Codec
Профиль формата : High@L3.1
Параметр CABAC формата : Нет
Параметр ReFrames формата : 2 кадра
Идентификатор кодека : V_MPEG4/ISO/AVC
Продолжительность : 42 м.
Битрейт : 3883 Кбит/сек
Ширина : 1280 пикселей
Высота : 718 пикселей
Соотношение сторон : 16:9
Режим частоты кадров : Постоянный
Частота кадров : 23,976 кадра/сек
Цветовое пространство : YUV
Субдискретизация насыщенности : 4:2:0
Битовая глубина : 8 бит
Тип развёртки : Прогрессивная
Бит/(Пиксели*Кадры) : 0.176
Размер потока : 1,15 Гбайт (82%)
Язык : English
Default : Да
Forced : Нет
Цветовой диапазон : Limited
Основные цвета : BT.709
Характеристики трансфера : BT.709
Коэффициенты матрицы : BT.709

Аудио #1
Идентификатор : 2
Формат : AC-3
Формат/Информация : Audio Coding 3
Расширение режима : CM (complete main)
Параметр Endianness формата : Big
Идентификатор кодека : A_AC3
Продолжительность : 42 м.
Вид битрейта : Постоянный
Битрейт : 384 Кбит/сек
Каналы : 6 каналов
Расположение каналов : Front: L C R, Side: L R, LFE
Частота : 48,0 КГц
Метод сжатия : С потерями
Размер потока : 117 Мбайт (8%)
Язык : Russian
Default : Да
Forced : Нет

Аудио #2
Идентификатор : 3
Формат : AC-3
Формат/Информация : Audio Coding 3
Расширение режима : CM (complete main)
Параметр Endianness формата : Big
Идентификатор кодека : A_AC3
Продолжительность : 42 м.
Вид битрейта : Постоянный
Битрейт : 384 Кбит/сек
Каналы : 6 каналов
Расположение каналов : Front: L C R, Side: L R, LFE
Частота : 48,0 КГц
Метод сжатия : С потерями
Размер потока : 117 Мбайт (8%)
Язык : English
Default : Нет
Forced : Нет
Обновлено! Добавлена 14 серия!kino.freetor.icu



Скачать Cтрела через торрент http://i72.fastpic.ru/big/2015/1009/82/1224ee2b4ab561b4cbeb115e49a5e982.jpg Скачать, смотреть онлайн Cтрела бесплантно в хорошем качестве Описание: Избалованный плейбой Оливер Квин, считавшийся погибшим в кораблекрушении вместе с отцом и девушкой, на самом деле пять лет ... 8.5 10 23
Info! Золотая раздача, скачанное не засчитывается.
Торрент: Зарегистрирован [2016-02-19 08:36] · скачан: 9 раз
Статус: √ проверено
Размер: 19.83 GB
Как cкачать? Как скачать Cтрела через торрент | UTorrent



Последний раз редактировалось: diletant (2016-02-19 08:36), всего редактировалось 12 раз(а)

28-11-2019 20:33  

Отключить всю рекламу на сайте

09-10-2015 09:58 Cтрела Скачать торрент  

Мыльце,получше санта-барбары будет winkkino.freetor.icu



09-10-2015 13:00 Cтрела Скачать торрент  

осилил только 1 сезон...кое-как. Пилот был нормальным, дальше началась упомянутая выше барбара. Хуже только флеш kino.freetor.icu



18-10-2015 08:29 Cтрела Скачать торрент  

zedsdead писал(а):

осилил только 1 сезон...кое-как. Пилот был нормальным, дальше началась упомянутая выше барбара. Хуже только флеш

Флэш-супер сериал!Сюжет есть и спецэффекты (какие ни какие,для сериала норм)!kino.freetor.icu



12-12-2015 07:28 Cтрела Скачать торрент  

sinder писал(а):

zedsdead писал(а):

осилил только 1 сезон...кое-как. Пилот был нормальным, дальше началась упомянутая выше барбара. Хуже только флеш

Флэш-супер сериал!Сюжет есть и спецэффекты (какие ни какие,для сериала норм)!

и поплакать можно за гг?) Из плюсов братья из сериала побег.kino.freetor.icu



12-12-2015 16:20 Cтрела Скачать торрент  

encio1987 писал(а):

sinder писал(а):

zedsdead писал(а):

осилил только 1 сезон...кое-как. Пилот был нормальным, дальше началась упомянутая выше барбара. Хуже только флеш

Флэш-супер сериал!Сюжет есть и спецэффекты (какие ни какие,для сериала норм)!

и поплакать можно за гг?) Из плюсов братья из сериала побег.

даже не братья а только один)) а другой был тупым в побеге и во флеше туповатый)))kino.freetor.icu



26-01-2016 13:27 Cтрела Скачать торрент  

Испахабили сериал.kino.freetor.icu



    Дорогой пользователь! Огромная просьба, поблагодарите релизера, оцените раздачу и оставьте свои комментарий, если Вы скачали Cтрела через торрент бесплатно!
    Комментировать посты могут только пользователи прошедшие не сложную регистрацию
    Показать сообщения:    

    Cтрела через торрент
    Скачать бесплатно Cтрела
    Cтрела скачать торрент
    Cтрела смотреть онлайн
    Cкачать фильм Cтрела бесплатно
    Cтрела скачать торрент в хорошем качестве
    Cтрела смотреть онлайн бесплатно в хорошем качестве


    Вы не можете начинать темы
    Вы не можете отвечать на сообщения
    Вы не можете редактировать свои сообщения
    Вы не можете удалять свои сообщения
    Вы не можете голосовать в опросах
    Вы не можете прикреплять файлы к сообщениям
    Вы можете скачивать файлы