Присоединяйтесь к нам в Telegram!, здесь всегда актуальный адрес сайта, оперативная поддержка и многое другое!!

>

5.9

iTunes

7.4

iTunes

9.4

1 сезон

1

7.4

2 сезон

7.2

iTunes

7.3

1 сезон

13

6.1

iTunes

8.3

GOG

30

ULTIMATE

pack

9.9

Лицензия

ВАЖНО

ИГРА 18+

pack

7.3

RePack

MK11

7.7

RePack

jed

7.8

RePack

fifa19

8.5

RePack

RDR2

RePack

NEED FOR SPEED™ PAYBACK

5 сезон

9 сезон

Бесстыжие 9 сезон

Все сериалы

все сериалы на PB.wtf

RePack

FAR CRY 5

Anonymous, доброе утро, мы катастрофически не успеваем собрать деньги на оплату серверов, помогите нам пожалуйста 5,10,15р., для нас важна любая помощь . В качестве благодарности мы отключим Вам всю рекламу на сайте (укажите свой ник в строку Ваше имя)!

×
  
Magnet ссылка

Каникулы / Vacation (Джон Фрэнсис Дейли, Джонатан М. Голдштейн) [2015, комедия, приключения, WEB-DL 720p, Дубляж] iTunes kino.freetor.icu

Каникулы через торрент kino.freetor.icu

Размер: 3.45 GB | Добавлен: 6 лет 1 мес. назад | Торрент скачан:1424 раза
Смотреть онлайн Каникулы | Скачать    Ребята, помогите собрать деньги на оплату серверов!!!

14-10-2015 08:57 Каникулы Скачать торрент  

Каникулы / Vacation«И что могло пойти не так»

  • Год выхода: 2015
  • Жанр: комедия, приключения

  • Страна: США
  • Продолжительность: 01:38:59
  • Перевод: Дубляж - [Лицензия / iTunes]
  • Cубтитры: английские,
  • Режиссер: Джон Фрэнсис Дейли, Джонатан М. Голдштейн
  • В ролях:

    Эд Хелмс (Rusty Griswold), Кристина Эпплгейт (Debbie Griswold), Скайлер Джизондо (James Griswold), Стил Стеббинс (Kevin Griswold), Крис Хемсворт (Stone Crandall), Лесли Манн (Audrey Crandall), Чеви Чейз (Clark Griswold), Беверли Д’Анджело (Ellen Griswold), Чарли Дэй (Chad), Катрин Миссал (Adena), Рон Ливингстон (Ethan), Норман Ридус (Trucker)


  • Расти Гризвольд - молодой отец и примерный семьянин, который очень хочет сплотить семью и воссоздать каникулы из своего детства. Вместе с супругой и двумя сыновьями он решает совершить незабываемое путешествие через всю страну, конечной целью которого станет самый лучший тематический парк Америки. Все тщательно спланировав, они отправляются в дорогу, надеясь, что их ждет очень веселое и увлекательное путешествие.
    В начале пути все происходит как нельзя лучше, но чем дальше они отдаляются от дома, тем больше проблем их ждет впереди. Все пошло совсем не так, как планировал Расти, но он не собирается останавливаться и готов сделать все возможное для того, чтобы добраться до пункта назначения и подарить своей семье лучшие каникулы...

  • Качество: WEB-DL 720p
  • Формат: MKV
  • Видео кодек: AVC
  • Аудио кодек: AC3
  • Видео: AVC, 1280x530 (2.40:1), 3927 kbps, 23,976 fps, 0,241 bpp
  • Аудио №1: русский / AC3 / 5.1 / 48 kHz / 384 kbps / 16 bit |Дубляж, iTunes|
  • Аудио №2: украинский / AC3 / 2.0 / 44 kHz / 192 kbps / 16 bit |Дубляж, iTunes|
  • Аудио №3: английский / AC3 / 5.1 / 48 kHz / 384 kbps / 16 bit

    Код:

    General
    Unique ID                                : 250496632626030184920916038736265819587 (0xBC73E585E41662C3A276945053FF35C3)
    Complete name                            : H:\K4H1KyL1.2015D.WEB-DL.720p.mkv
    Format                                   : Matroska
    Format version                           : Version 4 / Version 2
    File size                                : 3.45 GiB
    Duration                                 : 1h 38mn
    Overall bit rate                         : 4 987 Kbps
    Encoded date                             : UTC 2015-10-14 06:53:41
    Writing application                      : mkvmerge v8.3.0 ('Over the Horizon') 64bit
    Writing library                          : libebml v1.3.1 + libmatroska v1.4.2
    DURATION                                 : 01:38:59.897000000
    NUMBER_OF_FRAMES                         : 170540
    NUMBER_OF_BYTES                          : 142557518
    _STATISTICS_WRITING_APP                  : mkvmerge v8.3.0 ('Over the Horizon') 64bit
    _STATISTICS_WRITING_DATE_UTC             : 2015-10-14 06:53:41
    _STATISTICS_TAGS                         : BPS DURATION NUMBER_OF_FRAMES NUMBER_OF_BYTES

    Video
    ID                                       : 1
    Format                                   : AVC
    Format/Info                              : Advanced Video Codec
    Format profile                           : Main@L3.1
    Format settings, CABAC                   : No
    Format settings, ReFrames                : 2 frames
    Codec ID                                 : V_MPEG4/ISO/AVC
    Duration                                 : 1h 38mn
    Bit rate                                 : 3 928 Kbps
    Width                                    : 1 280 pixels
    Height                                   : 530 pixels
    Display aspect ratio                     : 2.40:1
    Frame rate                               : 23.976 fps
    Color space                              : YUV
    Chroma subsampling                       : 4:2:0
    Bit depth                                : 8 bits
    Scan type                                : Progressive
    Bits/(Pixel*Frame)                       : 0.241
    Stream size                              : 2.72 GiB (79%)
    Language                                 : English
    Default                                  : Yes
    Forced                                   : No
    Color primaries                          : BT.709-5, BT.1361, IEC 61966-2-4, SMPTE RP177
    Transfer characteristics                 : BT.709-5, BT.1361
    Matrix coefficients                      : BT.709-5, BT.1361, IEC 61966-2-4 709, SMPTE RP177

    Audio #1
    ID                                       : 2
    Format                                   : AC-3
    Format/Info                              : Audio Coding 3
    Mode extension                           : CM (complete main)
    Codec ID                                 : A_AC3
    Duration                                 : 1h 38mn
    Bit rate mode                            : Constant
    Bit rate                                 : 384 Kbps
    Channel(s)                               : 6 channels
    Channel positions                        : Front: L C R, Side: L R, LFE
    Sampling rate                            : 48.0 KHz
    Bit depth                                : 16 bits
    Compression mode                         : Lossy
    Stream size                              : 272 MiB (8%)
    Language                                 : Russian
    Default                                  : Yes
    Forced                                   : No

    Audio #2
    ID                                       : 3
    Format                                   : AC-3
    Format/Info                              : Audio Coding 3
    Mode extension                           : CM (complete main)
    Codec ID                                 : A_AC3
    Duration                                 : 1h 38mn
    Bit rate mode                            : Constant
    Bit rate                                 : 192 Kbps
    Channel(s)                               : 2 channels
    Channel positions                        : Front: L R
    Sampling rate                            : 44.1 KHz
    Bit depth                                : 16 bits
    Compression mode                         : Lossy
    Stream size                              : 136 MiB (4%)
    Language                                 : Ukrainian
    Default                                  : No
    Forced                                   : No

    Audio #3
    ID                                       : 4
    Format                                   : AC-3
    Format/Info                              : Audio Coding 3
    Mode extension                           : CM (complete main)
    Codec ID                                 : A_AC3
    Duration                                 : 1h 38mn
    Bit rate mode                            : Constant
    Bit rate                                 : 384 Kbps
    Channel(s)                               : 6 channels
    Channel positions                        : Front: L C R, Side: L R, LFE
    Sampling rate                            : 48.0 KHz
    Bit depth                                : 16 bits
    Compression mode                         : Lossy
    Stream size                              : 272 MiB (8%)
    Language                                 : English
    Default                                  : No
    Forced                                   : No

    Text
    ID                                       : 5
    Format                                   : UTF-8
    Codec ID                                 : S_TEXT/UTF8
    Codec ID/Info                            : UTF-8 Plain Text
    Language                                 : English
    Default                                  : No
    Forced                                   : No

    Скриншоты:


    © Оформление by -Lexx- kino.freetor.icu



  • Скачать Каникулы через торрент https://pic1.kartinco.top/images/61/stazu.jpg Скачать, смотреть онлайн Каникулы бесплантно в хорошем качестве qw.png Расти Гризвольд - молодой отец и примерный семьянин, который очень хочет сплотить семью и воссоздать каникулы из своего детства. ... 9.3 10 35
    Info! Золотая раздача, скачанное не засчитывается.
    Торрент: Зарегистрирован [2015-10-14 08:57] · скачан: 1 424 раз
    Статус: √ проверено
    Размер: 3.45 GB
    Как cкачать? Как скачать Каникулы через торрент | UTorrent

    % Раздел Тема Автор DL S | L
    Зарубежные Мультфильмы (BDRip 1080p, 720p, Blu-ray, BD-Remux) [ 2.01 GB ] Монстры на каникулах 3: Море зовёт / Hotel Transylvania 3: Summer Vacation [2018 Мультфильм BDRip 1080p HEVC ()] Мичман37 Скачать
    1 | 0
    Зарубежные Мультфильмы (WEB-DL 720p, 1080p) [ 3.33 GB ] Монстры на каникулах 3: Море зовёт / Hotel Transylvania 3: Summer Vacation [2018 мультфильм WEB-DL 720p] DUB sheker187 Скачать
    1 | 0
    Зарубежные Мультфильмы (WEB-DL 720p, 1080p) [ 4.09 GB ] Монстры на каникулах 3: Море зовёт / Hotel Transylvania 3: Summer Vacation [2018 мультфильм WEB-DL 1080p] DUB sheker187 Скачать
    1 | 0
    R.G. Resident & PiratVoice - Фильмы, Видео [ 2.17 GB ] Каникулы / Vacation [2015 WEB-DLRip-AVC ] ] R.G.Resident schultz Скачать
    1 | 0
    Фильмы (WEB-DL 720p, 1080p) [ 3.8 GB ] Каникулы / Vacation [2015 WEB-DL 1080p ] -Lexx- Скачать
    1 | 0
    Фильмы 2015 [DVDrip, WEB-DLRip, HDrip] [ 1.45 GB ] Каникулы / Vacation [2015 WEB-DLRip ] -Lexx- Скачать
    1 | 0
    Фильмы (BDRip, HDrip-AVC) (48-60 fps) [ 3.77 GB ] Каникулы / Vacation [2015 BDRip - AVC / 60fps - ] от R.G. HD-Films Ressident Скачать
    1 | 0

    28-11-2019 20:33  

    Отключить всю рекламу на сайте

    16-10-2015 08:19 Каникулы Скачать торрент  

    фильм на соньке останавливается
    фильм на соньке останавливается пардон это другой файл надо попробоватьkino.freetor.icu



    16-10-2015 12:05 Каникулы Скачать торрент  

    Римейк старого фильма с Чеви Чейзом, что ли?kino.freetor.icu



    16-10-2015 13:15 Каникулы Скачать торрент  

    Супер ржакаkino.freetor.icu



    18-10-2015 14:11 Каникулы Скачать торрент  

    прикольный кинчикkino.freetor.icu



    22-10-2015 14:06 Каникулы Скачать торрент  

    фильм Г.... пару смешных моментов, реально смешных, но это не стоит 1.5 часу потерянного времениkino.freetor.icu



    23-10-2015 02:42 Каникулы Скачать торрент  

    Фильм бомба)kino.freetor.icu



    25-10-2015 13:04 Каникулы Скачать торрент  

    Пошлятина. Сел с сыном, после 10-й пошлости пришлось прекратить просмотр - фильм не семейный.kino.freetor.icu



    28-10-2015 19:53 Каникулы Скачать торрент  

    mak-maxx писал(а):

    Пошлятина. Сел с сыном, после 10-й пошлости пришлось прекратить просмотр - фильм не семейный.

    Конечно, пусть лучше сыночек посмотрит голубой огонек с боречкой моисеевым и виагру. Что за люди тупые пошли...kino.freetor.icu



    08-11-2015 07:44 Каникулы Скачать торрент  

    полная хрень!!!!!!!!!!kino.freetor.icu



    09-11-2015 13:57 Каникулы Скачать торрент  

    полноеkino.freetor.icu



      Дорогой пользователь! Огромная просьба, поблагодарите релизера, оцените раздачу и оставьте свои комментарий, если Вы скачали Каникулы через торрент бесплатно!
      Комментировать посты могут только пользователи прошедшие не сложную регистрацию
      Показать сообщения:    

      Каникулы через торрент
      Скачать бесплатно Каникулы
      Каникулы скачать торрент
      Каникулы смотреть онлайн
      Cкачать фильм Каникулы бесплатно
      Каникулы скачать торрент в хорошем качестве
      Каникулы смотреть онлайн бесплатно в хорошем качестве


      Вы не можете начинать темы
      Вы не можете отвечать на сообщения
      Вы не можете редактировать свои сообщения
      Вы не можете удалять свои сообщения
      Вы не можете голосовать в опросах
      Вы не можете прикреплять файлы к сообщениям
      Вы можете скачивать файлы