Присоединяйтесь к нам в Telegram!, здесь всегда актуальный адрес сайта, оперативная поддержка и многое другое!!

>

5.9

iTunes

7.4

iTunes

9.4

1 сезон

1

7.4

2 сезон

7.2

iTunes

7.3

1 сезон

13

6.1

iTunes

8.3

Пиратка

30

ULTIMATE

pack

9.9

Лицензия

ВАЖНО

ИГРА 18+

pack

7.3

RePack

MK11

7.7

RePack

jed

7.8

RePack

fifa19

8.5

RePack

RDR2

RePack

NEED FOR SPEED™ PAYBACK

5 сезон

9 сезон

Бесстыжие 9 сезон

Все сериалы

все сериалы на PB.wtf

RePack

FAR CRY 5

Anonymous, доброй ночи, мы катастрофически не успеваем собрать деньги на оплату серверов, помогите нам пожалуйста 5,10,15р., для нас важна любая помощь . В качестве благодарности мы отключим Вам всю рекламу на сайте (укажите свой ник в строку Ваше имя)!

×
  
Magnet ссылка

Крутые чуваки на Байю / Bad Asses on the Bayou (Крэйг Мосс) [2014, боевик, драма, WEB-DL 1080p] Дубляж [SDI media] kino.freetor.icu

Крутые чуваки на Байю через торрент kino.freetor.icu

Размер: 3.61 GB | Добавлен: 6 лет 1 мес. назад | Торрент скачан:65 раз
Смотреть онлайн Крутые чуваки на Байю | Скачать    Ребята, помогите собрать деньги на оплату серверов!!!

22-10-2015 16:42 Крутые чуваки на Байю Скачать торрент  

Крутые чуваки на Байю / Bad Asses on the Bayou

  • Год выхода: 2014
  • Жанр: боевик, драма

  • Страна: США
  • Продолжительность: 01:25:11
  • Перевод: Дубляж [SDI media]
  • Cубтитры: английские
  • Режиссер: Крэйг Мосс
  • В ролях:

    Дэнни Трехо (Frank Vega), Дэнни Гловер (Bernie Pope), Джон Эймос (Earl), Лони Лав (Carmen), Колби Арпс (Kyle), Дебора Айоринде (Taryn), Люсиус Бастон мл. (H.S. Security Guard), Джимми Беннетт (Ronald), Джеймс Моусес Блэк (Actor), Аллен Бадрикс (Detective), Челси Брюленд (Marissa), Росс П. Кук (Ass Kicker)


  • Фрэнк Вега и Бени Поуп возвращаются - на этот раз они отправляются в Луизиану, где им предстоит найти похищенного друга.

  • Качество: WEB-DL 1080p
  • Формат: MKV
  • Видео кодек: AVC
  • Аудио кодек: AC3
  • Видео: AVC, 1920x1080 (16:9), 5500 kbps, 23,976 fps, 0,111 bpp
  • Аудио №1: русский / AC3 / 2.0 / 48 kHz / 192 kbps / 16 bit |Дубляж, SDI media|
  • Аудио №2: английский / AC3 / 5.1 / 48 kHz / 384 kbps / 16 bit

    Код:

    General
    Unique ID                                : 190342130675742155931445944906918052363 (0x8F328F981AE0D607B77D8E381FCAC20B)
    Complete name                            : H:\Krytye.4yvaki.na.Baju.2015.D.WEBDL.1080p.mkv
    Format                                   : Matroska
    Format version                           : Version 4 / Version 2
    File size                                : 3.61 GiB
    Duration                                 : 1h 25mn
    Overall bit rate                         : 6 073 Kbps
    Encoded date                             : UTC 2015-10-21 23:29:17
    Writing application                      : mkvmerge v8.2.0 ('World of Adventure') 64bit
    Writing library                          : libebml v1.3.1 + libmatroska v1.4.2

    Video
    ID                                       : 1
    Format                                   : AVC
    Format/Info                              : Advanced Video Codec
    Format profile                           : High@L4.1
    Format settings, CABAC                   : Yes
    Format settings, ReFrames                : 4 frames
    Codec ID                                 : V_MPEG4/ISO/AVC
    Duration                                 : 1h 25mn
    Bit rate                                 : 5 500 Kbps
    Width                                    : 1 920 pixels
    Height                                   : 1 080 pixels
    Display aspect ratio                     : 16:9
    Frame rate                               : 23.976 fps
    Color space                              : YUV
    Chroma subsampling                       : 4:2:0
    Bit depth                                : 8 bits
    Scan type                                : Progressive
    Bits/(Pixel*Frame)                       : 0.111
    Stream size                              : 3.20 GiB (89%)
    Writing library                          : x264 core 142 r2479 dd79a61
    Encoding settings                        : cabac=1 / ref=2 / deblock=1:-1:-1 / analyse=0x3:0x113 / me=hex / subme=6 / psy=1 / psy_rd=1.00:0.15 / mixed_ref=1 / me_range=16 / chroma_me=1 / trellis=1 / 8x8dct=1 / cqm=0 / deadzone=21,11 / fast_pskip=1 / chroma_qp_offset=-3 / threads=4 / lookahead_threads=1 / sliced_threads=0 / nr=0 / decimate=1 / interlaced=0 / bluray_compat=0 / constrained_intra=0 / bframes=3 / b_pyramid=2 / b_adapt=1 / b_bias=0 / direct=1 / weightb=1 / open_gop=0 / weightp=1 / keyint=240 / keyint_min=24 / scenecut=40 / intra_refresh=0 / rc_lookahead=30 / rc=2pass / mbtree=1 / bitrate=5500 / ratetol=1.0 / qcomp=0.60 / qpmin=0 / qpmax=69 / qpstep=4 / cplxblur=20.0 / qblur=0.5 / vbv_maxrate=62500 / vbv_bufsize=78125 / nal_hrd=none / filler=0 / ip_ratio=1.40 / aq=1:1.00
    Language                                 : English
    Default                                  : Yes
    Forced                                   : No
    Color primaries                          : BT.709-5, BT.1361, IEC 61966-2-4, SMPTE RP177
    Transfer characteristics                 : BT.709-5, BT.1361
    Matrix coefficients                      : BT.709-5, BT.1361, IEC 61966-2-4 709, SMPTE RP177

    Audio #1
    ID                                       : 2
    Format                                   : AC-3
    Format/Info                              : Audio Coding 3
    Mode extension                           : CM (complete main)
    Codec ID                                 : A_AC3
    Duration                                 : 1h 25mn
    Bit rate mode                            : Constant
    Bit rate                                 : 192 Kbps
    Channel(s)                               : 2 channels
    Channel positions                        : Front: L R
    Sampling rate                            : 48.0 KHz
    Bit depth                                : 16 bits
    Compression mode                         : Lossy
    Delay relative to video                  : -83ms
    Stream size                              : 117 MiB (3%)
    Language                                 : Russian
    Default                                  : Yes
    Forced                                   : Yes

    Audio #2
    ID                                       : 3
    Format                                   : AC-3
    Format/Info                              : Audio Coding 3
    Mode extension                           : CM (complete main)
    Codec ID                                 : A_AC3
    Duration                                 : 1h 25mn
    Bit rate mode                            : Constant
    Bit rate                                 : 384 Kbps
    Channel(s)                               : 6 channels
    Channel positions                        : Front: L C R, Side: L R, LFE
    Sampling rate                            : 48.0 KHz
    Bit depth                                : 16 bits
    Compression mode                         : Lossy
    Delay relative to video                  : -83ms
    Stream size                              : 234 MiB (6%)
    Language                                 : English
    Default                                  : No
    Forced                                   : No

    Text
    ID                                       : 4
    Format                                   : UTF-8
    Codec ID                                 : S_TEXT/UTF8
    Codec ID/Info                            : UTF-8 Plain Text
    Language                                 : English
    Default                                  : No
    Forced                                   : No

    Скриншоты:


    © Оформление by -Lexx- kino.freetor.icu



  • Скачать Крутые чуваки на Байю через торрент https://pic1.kartinco.top/images/61/stazu.jpg Скачать, смотреть онлайн Крутые чуваки на Байю бесплантно в хорошем качестве qw.png Фрэнк Вега и Бени Поуп возвращаются - на этот раз они отправляются в Луизиану, где им предстоит найти похищенного ... 10 10 3
    Торрент: Зарегистрирован [2015-10-22 16:42] · скачан: 65 раз
    Статус: √ проверено
    Размер: 3.61 GB
    Как cкачать? Как скачать Крутые чуваки на Байю через торрент | UTorrent

    28-11-2019 20:33  

    Отключить всю рекламу на сайте

      Дорогой пользователь! Огромная просьба, поблагодарите релизера, оцените раздачу и оставьте свои комментарий, если Вы скачали Крутые чуваки на Байю через торрент бесплатно!
      Комментировать посты могут только пользователи прошедшие не сложную регистрацию
      Показать сообщения:    

      Крутые чуваки на Байю через торрент
      Скачать бесплатно Крутые чуваки на Байю
      Крутые чуваки на Байю скачать торрент
      Крутые чуваки на Байю смотреть онлайн
      Cкачать фильм Крутые чуваки на Байю бесплатно
      Крутые чуваки на Байю скачать торрент в хорошем качестве
      Крутые чуваки на Байю смотреть онлайн бесплатно в хорошем качестве


      Вы не можете начинать темы
      Вы не можете отвечать на сообщения
      Вы не можете редактировать свои сообщения
      Вы не можете удалять свои сообщения
      Вы не можете голосовать в опросах
      Вы не можете прикреплять файлы к сообщениям
      Вы можете скачивать файлы