Присоединяйтесь к нам в Telegram!, здесь всегда актуальный адрес сайта, оперативная поддержка и многое другое!!

>

5.9

iTunes

7.4

iTunes

9.4

1 сезон

1

7.4

2 сезон

7.2

iTunes

7.3

1 сезон

13

6.1

iTunes

8.3

GOG

30

ULTIMATE

pack

9.9

Лицензия

ВАЖНО

ИГРА 18+

pack

7.3

RePack

MK11

7.7

RePack

jed

7.8

RePack

fifa19

8.5

RePack

RDR2

RePack

NEED FOR SPEED™ PAYBACK

5 сезон

9 сезон

Бесстыжие 9 сезон

Все сериалы

все сериалы на PB.wtf

RePack

FAR CRY 5

Anonymous, добрый день, мы катастрофически не успеваем собрать деньги на оплату серверов, помогите нам пожалуйста 5,10,15р., для нас важна любая помощь . В качестве благодарности мы отключим Вам всю рекламу на сайте (укажите свой ник в строку Ваше имя)!

×
  
Magnet ссылка

Эскорт / The Escort (Уилл Слокомб) [2015, мелодрама, драма, комедия, WEB-DL 720p, Профессиональный многоголосый [официальный звук] kino.freetor.icu

Эскорт через торрент kino.freetor.icu

Размер: 2.89 GB | Добавлен: 6 лет 1 мес. назад | Торрент скачан:164 раза
Смотреть онлайн Эскорт | Скачать    Ребята, помогите собрать деньги на оплату серверов!!!

26-10-2015 19:45 Эскорт Скачать торрент  


Эскорт / The Escort


ИНФОРМАЦИЯ:
Год выпуска:2015
Страна: США
Жанр: мелодрама, драма, комедия
Продолжительность: 01:27:36
Перевод: Профессиональный многоголосый [официальный звук]
Режиссер: Уилл Слокомб

В Ролях:


Линдси Фонсека (Natalie), Майкл Донджер (Mitch), Томми Дьюи (JP), Брюс Кэмпбелл (Charles), Рэйчел Решефф (Emily), Румер Уиллис (Dana), Соня Уолгер (Samantha), Стивен Огг (Warren), Дэн Баккедаль (Rick), Анна Конкл (Cory), Сэм Дэйли, Икбал Теба (Richard)

Описание:
Отчаянно нуждающийся в хорошей истории сексуально одержимый журналист погружается в мир эскорт-услуг высокого класса.

  • Мировая премьера:15 июня 2015

    ТЕХ.ДАННЫЕ:
    Качество: WEB-DL 720p
    Формат: MKV
    Видео: AVC, 1280x692 (1.850), 4046 kbps, 23,976 fps, 0,191 bpp
    Аудио №1: русский / AC3 / 2.0 / 48 kHz / 192 kbps / 16 bit ||
    Аудио №2: английский / AC3 / 5.1 / 48 kHz / 384 kbps / 16 bit
    Навигация по главам: есть


    General
    Unique ID : 206326406742693775998145982361496760741 (0x9B39053FE79693BFB945A37D7BB4B1A5)
    Complete name : D:\Торенты\Esk0rt.2015.P.WEBDL.720p.mkv
    Format : Matroska
    Format version : Version 4 / Version 2
    File size : 2.89 GiB
    Duration : 1h 27mn
    Overall bit rate : 4 717 Kbps
    Encoded date : UTC 2015-10-26 18:32:12
    Writing application : mkvmerge v8.2.0 ('World of Adventure') 64bit
    Writing library : libebml v1.3.1 + libmatroska v1.4.2

    Video
    ID : 1
    Format : AVC
    Format/Info : Advanced Video Codec
    Format profile : High@L3.1
    Format settings, CABAC : No
    Format settings, ReFrames : 2 frames
    Codec ID : V_MPEG4/ISO/AVC
    Duration : 1h 27mn
    Bit rate : 4 047 Kbps
    Width : 1 280 pixels
    Height : 692 pixels
    Display aspect ratio : 1.850
    Frame rate : 23.976 fps
    Color space : YUV
    Chroma subsampling : 4:2:0
    Bit depth : 8 bits
    Scan type : Progressive
    Bits/(Pixel*Frame) : 0.191
    Stream size : 2.48 GiB (86%)
    Language : English
    Default : Yes
    Forced : No
    Color primaries : BT.709-5, BT.1361, IEC 61966-2-4, SMPTE RP177
    Transfer characteristics : BT.709-5, BT.1361
    Matrix coefficients : BT.709-5, BT.1361, IEC 61966-2-4 709, SMPTE RP177

    Audio #1
    ID : 2
    Format : AC-3
    Format/Info : Audio Coding 3
    Mode extension : CM (complete main)
    Codec ID : A_AC3
    Duration : 1h 27mn
    Bit rate mode : Constant
    Bit rate : 192 Kbps
    Channel(s) : 2 channels
    Channel positions : Front: L R
    Sampling rate : 48.0 KHz
    Bit depth : 16 bits
    Compression mode : Lossy
    Stream size : 120 MiB (4%)
    Language : Russian
    Default : Yes
    Forced : Yes

    Audio #2
    ID : 3
    Format : AC-3
    Format/Info : Audio Coding 3
    Mode extension : CM (complete main)
    Codec ID : A_AC3
    Duration : 1h 27mn
    Bit rate mode : Constant
    Bit rate : 384 Kbps
    Channel(s) : 6 channels
    Channel positions : Front: L C R, Side: L R, LFE
    Sampling rate : 48.0 KHz
    Bit depth : 16 bits
    Compression mode : Lossy
    Stream size : 241 MiB (8%)
    Title : Original
    Language : English
    Default : No
    Forced : No

    Menu
    00:00:00.000 : en:Chapter One
    00:09:07.000 : en:Chapter Two
    00:19:01.000 : en:Chapter Three
    00:31:09.000 : en:Chapter Four
    00:43:36.000 : en:Chapter Five
    00:54:09.000 : en:Chapter Six
    01:01:02.000 : en:Chapter Seven
    01:10:15.000 : en:Chapter Eight
    01:17:33.000 : en:Chapter Nine
    Скриншоты:


    © Оформление by Ворон
    kino.freetor.icu



  • Скачать Эскорт через торрент https://pic1.kartinco.top/images/61/ordi9.jpg Скачать, смотреть онлайн Эскорт бесплантно в хорошем качестве Описание: Отчаянно нуждающийся в хорошей истории сексуально одержимый журналист погружается в мир эскорт-услуг высокого класса. Мировая ... 8.4 10 11
    Торрент: Зарегистрирован [2015-10-26 19:45] · скачан: 164 раз
    Статус: T временная
    Размер: 2.89 GB
    Как cкачать? Как скачать Эскорт через торрент | UTorrent

    % Раздел Тема Автор DL S | L
    Порно фильмы HD [ 2.46 GB ] Наказание Матери Твой Первый Эскорт и Двойное Проникновение Мамки / Cory Chase In Punishing Mother Your First Escort And DP MILF [2016 Incest MILF Rape Anal Bondage Double Penetration Creampie WEB-DL 720p Оригинальный] nn99nn Скачать
    1 | 0
    T Фильмы 2015 [DVDrip, WEB-DLRip, HDrip] [ 1.37 GB ] Эскорт / The Escort [2015 WEB-DLRip] [Официальный звук] -Lexx- Скачать
    1 | 0
    T Фильмы (WEB-DL 720p, 1080p) [ 3.38 GB ] Эскорт / The Escort [2015 WEB-DL 1080p] многоголосый [Официальный звук] -Lexx- Скачать
    1 | 0
    Порно фильмы с сюжетом [ 1.84 GB ] Эскорт #3 / The Escort #3 [2014 Affairs & Love Triangles Feature WEB-DLRip Оригинал] Pir@tya2010 Скачать
    1 | 0
    Порно фильмы с сюжетом [ 1.67 GB ] Эскорт 2. / The Escort 2. [2014 Feature. DVDRip Оригинал] Pir@tya2010 Скачать
    1 | 0
    Порно фильмы с сюжетом [ 929 MB ] Эскорт / The Escort [2013 Romance Feature Oral Sex All Sex DVDRip Оригинал] 19alexei87 Скачать
    1 | 0
    Порно фильмы с сюжетом [ 2.03 GB ] Эскорт / The Escort [2013 Feature. WEB-DLRip Оригинал] Pir@tya2010 Скачать
    1 | 0

    28-11-2019 20:33  

    Отключить всю рекламу на сайте

      Дорогой пользователь! Огромная просьба, поблагодарите релизера, оцените раздачу и оставьте свои комментарий, если Вы скачали Эскорт через торрент бесплатно!
      Комментировать посты могут только пользователи прошедшие не сложную регистрацию
      Показать сообщения:    

      Эскорт через торрент
      Скачать бесплатно Эскорт
      Эскорт скачать торрент
      Эскорт смотреть онлайн
      Cкачать фильм Эскорт бесплатно
      Эскорт скачать торрент в хорошем качестве
      Эскорт смотреть онлайн бесплатно в хорошем качестве


      Вы не можете начинать темы
      Вы не можете отвечать на сообщения
      Вы не можете редактировать свои сообщения
      Вы не можете удалять свои сообщения
      Вы не можете голосовать в опросах
      Вы не можете прикреплять файлы к сообщениям
      Вы можете скачивать файлы