Присоединяйтесь к нам в Telegram!, здесь всегда актуальный адрес сайта, оперативная поддержка и многое другое!!

>

5.9

iTunes

7.4

iTunes

9.4

1 сезон

1

7.4

2 сезон

7.2

iTunes

7.3

1 сезон

13

6.1

iTunes

8.3

GOG

30

ULTIMATE

pack

9.9

Лицензия

ВАЖНО

ИГРА 18+

pack

7.3

RePack

MK11

7.7

RePack

jed

7.8

RePack

fifa19

8.5

RePack

RDR2

RePack

NEED FOR SPEED™ PAYBACK

5 сезон

9 сезон

Бесстыжие 9 сезон

Все сериалы

все сериалы на PB.wtf

RePack

FAR CRY 5

Anonymous, доброе утро, мы катастрофически не успеваем собрать деньги на оплату серверов, помогите нам пожалуйста 5,10,15р., для нас важна любая помощь . В качестве благодарности мы отключим Вам всю рекламу на сайте (укажите свой ник в строку Ваше имя)!

×
  
Magnet ссылка

Старый 37 / Old 37 (Алан Смити) [2015, ужасы, WEB-DL 720p, Любительский одноголосый [Xixidok] kino.freetor.icu

Старый 37 через торрент kino.freetor.icu

Размер: 2.55 GB | Добавлен: 6 лет назад | Торрент скачан:59 раз
Смотреть онлайн Старый 37 | Скачать    Ребята, помогите собрать деньги на оплату серверов!!!

04-11-2015 18:11 Старый 37 Скачать торрент  


Старый 37 / Old 37
««Haunting the desolate stretches of American back roads, Old 37 is there to take the sick and injured...»»

ИНФОРМАЦИЯ:
Год выпуска:2015
Страна: США
Жанр: ужасы
Продолжительность: 01:20:24
Перевод: Любительский одноголосый [Xixidok]
Субтитры: русские (force), английские,
Режиссер: Алан Смити

В Ролях:


Кэйн Ходдер (Jon Roy), Билл Моусли (Darryl), Джейк Робинсон (Jordan), Саша Нопф (Mary), Оливия Александр (Brooke), Брэнди Сайрус (Angel), Маргарет Кин Уильямс (Rachel), Роберт Бог (Detective Higgins), Кэйтлин Харрис (Amy), Анжела Питропинто (Principle Stockton), Кен Симмонс (Jimmy), Катрин Блейдс (Samantha)

Описание:
Двое братьев разъезжают на карете скорой помощи перехватывая звонки в службу 911. Зачем они это делают? Чтобы отомстить подросткам, которые вели себя очень плохо и стали причиной смерти матери братьев...

  • Мировая премьера:21 марта 2015

    ТЕХ.ДАННЫЕ:
    Качество: WEB-DL 720p
    Формат: MKV
    Видео: AVC, 1280x532 (2.40:1), 3874 kbps, 23,976 fps, 0,237 bpp
    Аудио №1: русский / MP3 / 2.0 / 44 kHz / 192 kbps / ||
    Аудио №2: английский / AC3 / 5.1 / 48 kHz / 384 kbps / 16 bit
    Навигация по главам: есть


    General
    Unique ID : 191287779241118019748240015964597155456 (0x8FE8AFAB09B055BD9E7E53B1824C7680)
    Complete name : D:\Торенты\Old 37.2015.720p.WEB-DL.mkv
    Format : Matroska
    Format version : Version 4 / Version 2
    File size : 2.55 GiB
    Duration : 1h 20mn
    Overall bit rate : 4 541 Kbps
    Encoded date : UTC 2015-10-31 14:54:08
    Writing application : mkvmerge v6.9.1 ('Blue Panther') 64bit built on Apr 18 2014 18:23:38
    Writing library : libebml v1.3.0 + libmatroska v1.4.1

    Video
    ID : 1
    Format : AVC
    Format/Info : Advanced Video Codec
    Format profile : Main@L3.1
    Format settings, CABAC : No
    Format settings, ReFrames : 2 frames
    Codec ID : V_MPEG4/ISO/AVC
    Duration : 1h 20mn
    Bit rate : 3 874 Kbps
    Width : 1 280 pixels
    Height : 532 pixels
    Display aspect ratio : 2.40:1
    Frame rate : 23.976 fps
    Color space : YUV
    Chroma subsampling : 4:2:0
    Bit depth : 8 bits
    Scan type : Progressive
    Bits/(Pixel*Frame) : 0.237
    Stream size : 2.18 GiB (85%)
    Language : English
    Default : Yes
    Forced : No
    Color primaries : BT.709-5, BT.1361, IEC 61966-2-4, SMPTE RP177
    Transfer characteristics : BT.709-5, BT.1361
    Matrix coefficients : BT.709-5, BT.1361, IEC 61966-2-4 709, SMPTE RP177

    Audio #1
    ID : 2
    Format : MPEG Audio
    Format version : Version 1
    Format profile : Layer 3
    Codec ID : A_MPEG/L3
    Codec ID/Hint : MP3
    Duration : 1h 20mn
    Bit rate mode : Constant
    Bit rate : 192 Kbps
    Channel(s) : 2 channels
    Sampling rate : 44.1 KHz
    Compression mode : Lossy
    Stream size : 110 MiB (4%)
    Title : Xizidoktor
    Language : Russian
    Default : Yes
    Forced : No

    Audio #2
    ID : 3
    Format : AC-3
    Format/Info : Audio Coding 3
    Mode extension : CM (complete main)
    Codec ID : A_AC3
    Duration : 1h 20mn
    Bit rate mode : Constant
    Bit rate : 384 Kbps
    Channel(s) : 6 channels
    Channel positions : Front: L C R, Side: L R, LFE
    Sampling rate : 48.0 KHz
    Bit depth : 16 bits
    Compression mode : Lossy
    Stream size : 221 MiB (8%)
    Title : original
    Language : English
    Default : No
    Forced : No

    Text #1
    ID : 4
    Format : UTF-8
    Codec ID : S_TEXT/UTF8
    Codec ID/Info : UTF-8 Plain Text
    Title : force
    Language : Russian
    Default : Yes
    Forced : Yes

    Text #2
    ID : 5
    Format : UTF-8
    Codec ID : S_TEXT/UTF8
    Codec ID/Info : UTF-8 Plain Text
    Language : English
    Default : No
    Forced : No

    Menu
    00:00:00.000 : en:Chapter 01
    00:14:15.000 : en:Chapter 02
    00:26:13.000 : en:Chapter 03
    00:38:09.000 : en:Chapter 04
    00:50:45.000 : en:Chapter 05
    01:04:13.000 : en:Chapter 06
    01:15:40.000 : en:End Credits
    Скриншоты:


    © Оформление by Ворон
    kino.freetor.icu



  • Скачать Старый 37 через торрент https://pic1.kartinco.top/images/61/ordi9.jpg Скачать, смотреть онлайн Старый 37 бесплантно в хорошем качестве Описание: Двое братьев разъезжают на карете скорой помощи перехватывая звонки в службу 91 Зачем они это делают? Чтобы отомстить ... 5.5 10 4
    Торрент: Зарегистрирован [2015-11-04 18:11] · скачан: 59 раз
    Статус: T временная
    Размер: 2.55 GB
    Как cкачать? Как скачать Старый 37 через торрент | UTorrent

    28-11-2019 20:33  

    Отключить всю рекламу на сайте

    08-11-2015 15:13 Старый 37 Скачать торрент  

    как фильм стоит качатьkino.freetor.icu



      Дорогой пользователь! Огромная просьба, поблагодарите релизера, оцените раздачу и оставьте свои комментарий, если Вы скачали Старый 37 через торрент бесплатно!
      Комментировать посты могут только пользователи прошедшие не сложную регистрацию
      Показать сообщения:    

      Старый 37 через торрент
      Скачать бесплатно Старый 37
      Старый 37 скачать торрент
      Старый 37 смотреть онлайн
      Cкачать фильм Старый 37 бесплатно
      Старый 37 скачать торрент в хорошем качестве
      Старый 37 смотреть онлайн бесплатно в хорошем качестве


      Вы не можете начинать темы
      Вы не можете отвечать на сообщения
      Вы не можете редактировать свои сообщения
      Вы не можете удалять свои сообщения
      Вы не можете голосовать в опросах
      Вы не можете прикреплять файлы к сообщениям
      Вы можете скачивать файлы