Присоединяйтесь к нам в Telegram!, здесь всегда актуальный адрес сайта, оперативная поддержка и многое другое!!

>

5.9

iTunes

7.4

iTunes

9.4

1 сезон

1

7.4

2 сезон

7.2

iTunes

7.3

iTunes

13

6.1

iTunes

8.3

Пиратка

30

ULTIMATE

pack

9.9

Лицензия

ВАЖНО

ИГРА 18+

pack

7.3

RePack

MK11

7.7

RePack

jed

7.8

RePack

fifa19

8.5

RePack

RDR2

RePack

NEED FOR SPEED™ PAYBACK

5 сезон

9 сезон

Бесстыжие 9 сезон

Все сериалы

все сериалы на PB.wtf

RePack

FAR CRY 5

Anonymous, доброе утро, мы катастрофически не успеваем собрать деньги на оплату серверов, помогите нам пожалуйста 5,10,15р., для нас важна любая помощь . В качестве благодарности мы отключим Вам всю рекламу на сайте (укажите свой ник в строку Ваше имя)!

×
  
Magnet ссылка

Форт Блисс / Fort Bliss (Клаудия Майерс) [2014, драма, военный, WEB-DL 1080p, Профессиональный многоголосый [Лицензия / iTunes] kino.freetor.icu

Форт Блисс через торрент kino.freetor.icu

Размер: 4.62 GB | Добавлен: 6 лет назад | Торрент скачан:58 раз
Смотреть онлайн Форт Блисс | Скачать    Ребята, помогите собрать деньги на оплату серверов!!!

23-11-2015 18:02 Форт Блисс Скачать торрент  


Форт Блисс / Fort Bliss
««So many expectations»»

ИНФОРМАЦИЯ:
Год выпуска:2014
Страна: Турция, США
Жанр: драма, военный
Продолжительность: 01:49:43
Перевод: Профессиональный многоголосый [Лицензия / iTunes]
Режиссер: Клаудия Майерс

В Ролях:


Мишель Монахэн (Maggie Swann), Эммануэль Шрики (Alma), Пабло Шрайбер (Staff Sergeant Donovan), Рон Ливингстон (Richard), Дэш Майок (Staff Sergeant Malcolm), Фредди Родригес (Garver), Джон Сэвэдж (Mike Swann), Маноло Кардона (Luis), Гбенга Акиннагбе (Sgt. Butcher), Oakes Fegley (Paul), Хуан Гэбриел Парейа (Javier), Фахим Фазли (Afghan Driver)

Описание:
Вернувшись домой после длительной службы в Афганистане, медик армии США и мать одиночка пытается восстановить свои отношения с ее сыном.

  • Мировая премьера:29 апреля 2014

    ТЕХ.ДАННЫЕ:
    Качество: WEB-DL 1080p
    Формат: MKV
    Видео: AVC, 1920x1038 (1.850), 5140 kbps, 23,976 fps, 0,108 bpp
    Аудио №1: русский / AC3 / 5.1 / 48 kHz / 384 kbps / 16 bit ||
    Аудио №2: английский / AC3 / 5.1 / 48 kHz / 384 kbps / 16 bit
    Навигация по главам: есть


    General
    Unique ID : 188721411481770585041789731598008739666 (0x8DFA6BF7F002FB96BA6A8FD0BBDA6752)
    Complete name : D:\Торенты\F0rt.Bl1ss.2014.P.WEBDL.1080p.mkv
    Format : Matroska
    Format version : Version 4 / Version 2
    File size : 4.62 GiB
    Duration : 1h 49mn
    Overall bit rate : 6 028 Kbps
    Encoded date : UTC 2015-11-23 16:20:05
    Writing application : mkvmerge v8.3.0 ('Over the Horizon') 64bit
    Writing library : libebml v1.3.1 + libmatroska v1.4.2

    Video
    ID : 1
    Format : AVC
    Format/Info : Advanced Video Codec
    Format profile : High@L4.0
    Format settings, CABAC : Yes
    Format settings, ReFrames : 4 frames
    Codec ID : V_MPEG4/ISO/AVC
    Duration : 1h 49mn
    Bit rate : 5 140 Kbps
    Width : 1 920 pixels
    Height : 1 038 pixels
    Display aspect ratio : 1.850
    Frame rate : 23.976 fps
    Color space : YUV
    Chroma subsampling : 4:2:0
    Bit depth : 8 bits
    Scan type : Progressive
    Bits/(Pixel*Frame) : 0.108
    Stream size : 3.94 GiB (85%)
    Language : English
    Default : Yes
    Forced : No
    Color primaries : BT.709-5, BT.1361, IEC 61966-2-4, SMPTE RP177
    Transfer characteristics : BT.709-5, BT.1361
    Matrix coefficients : BT.709-5, BT.1361, IEC 61966-2-4 709, SMPTE RP177

    Audio #1
    ID : 2
    Format : AC-3
    Format/Info : Audio Coding 3
    Mode extension : CM (complete main)
    Codec ID : A_AC3
    Duration : 1h 49mn
    Bit rate mode : Constant
    Bit rate : 384 Kbps
    Channel(s) : 6 channels
    Channel positions : Front: L C R, Side: L R, LFE
    Sampling rate : 48.0 KHz
    Bit depth : 16 bits
    Compression mode : Lossy
    Stream size : 301 MiB (6%)
    Language : Russian
    Default : Yes
    Forced : No

    Audio #2
    ID : 3
    Format : AC-3
    Format/Info : Audio Coding 3
    Mode extension : CM (complete main)
    Codec ID : A_AC3
    Duration : 1h 49mn
    Bit rate mode : Constant
    Bit rate : 384 Kbps
    Channel(s) : 6 channels
    Channel positions : Front: L C R, Side: L R, LFE
    Sampling rate : 48.0 KHz
    Bit depth : 16 bits
    Compression mode : Lossy
    Stream size : 301 MiB (6%)
    Language : English
    Default : No
    Forced : No

    Menu
    00:00:00.000 : en:Chapter 01
    00:09:06.000 : en:Chapter 02
    00:20:59.000 : en:Chapter 03
    00:30:19.000 : en:Chapter 04
    00:41:00.000 : en:Chapter 05
    00:52:32.000 : en:Chapter 06
    01:02:29.000 : en:Chapter 07
    01:11:44.000 : en:Chapter 08
    01:20:11.000 : en:Chapter 09
    01:29:39.000 : en:Chapter 10
    01:40:48.000 : en:Chapter 11
    01:44:55.000 : en:Chapter 12
    Скриншоты:

    © Оформление by .::Ворон::.
    kino.freetor.icu



  • Скачать Форт Блисс через торрент https://pic1.kartinco.top/images/61/ordi9.jpg Скачать, смотреть онлайн Форт Блисс бесплантно в хорошем качестве Описание: Вернувшись домой после длительной службы в Афганистане, медик армии США и мать одиночка пытается восстановить свои отношения с ее ... 10 10 3
    Торрент: Зарегистрирован [2015-11-23 18:02] · скачан: 58 раз
    Статус: √ проверено
    Размер: 4.62 GB
    Как cкачать? Как скачать Форт Блисс через торрент | UTorrent

    % Раздел Тема Автор DL S | L
    Фильмы 2014 [DVDrip, WEB-DLRip, HDrip] [ 1.46 GB ] Форт Блисс / Fort Bliss [2014 военный WEB-DLRip многоголосый Ворон Скачать
    1 | 0

    28-11-2019 20:33  

    Отключить всю рекламу на сайте

    24-11-2015 08:21 Форт Блисс Скачать торрент  

    как фильм?kino.freetor.icu



      Дорогой пользователь! Огромная просьба, поблагодарите релизера, оцените раздачу и оставьте свои комментарий, если Вы скачали Форт Блисс через торрент бесплатно!
      Комментировать посты могут только пользователи прошедшие не сложную регистрацию
      Показать сообщения:    

      Форт Блисс через торрент
      Скачать бесплатно Форт Блисс
      Форт Блисс скачать торрент
      Форт Блисс смотреть онлайн
      Cкачать фильм Форт Блисс бесплатно
      Форт Блисс скачать торрент в хорошем качестве
      Форт Блисс смотреть онлайн бесплатно в хорошем качестве


      Вы не можете начинать темы
      Вы не можете отвечать на сообщения
      Вы не можете редактировать свои сообщения
      Вы не можете удалять свои сообщения
      Вы не можете голосовать в опросах
      Вы не можете прикреплять файлы к сообщениям
      Вы можете скачивать файлы