Присоединяйтесь к нам в Telegram!, здесь всегда актуальный адрес сайта, оперативная поддержка и многое другое!!

>

5.9

iTunes

7.4

iTunes

9.4

1 сезон

1

7.4

2 сезон

7.2

iTunes

7.3

iTunes

13

6.1

iTunes

8.3

Пиратка

30

ULTIMATE

pack

9.9

Лицензия

ВАЖНО

ИГРА 18+

pack

7.3

RePack

MK11

7.7

RePack

jed

7.8

RePack

fifa19

8.5

RePack

RDR2

RePack

NEED FOR SPEED™ PAYBACK

5 сезон

9 сезон

Бесстыжие 9 сезон

Все сериалы

все сериалы на PB.wtf

RePack

FAR CRY 5

Anonymous, доброе утро, мы катастрофически не успеваем собрать деньги на оплату серверов, помогите нам пожалуйста 5,10,15р., для нас важна любая помощь . В качестве благодарности мы отключим Вам всю рекламу на сайте (укажите свой ник в строку Ваше имя)!

×
  
Magnet ссылка

Приговоренные / Отбросы / Condemned (Eli Morgan Gesner) [2015, ужасы, WEB-DL 720p, Любительский (двухголосый)[Ох! Студия и Ворон] kino.freetor.icu

Приговоренные через торрент kino.freetor.icu

Размер: 2.7 GB | Добавлен: 6 лет назад | Торрент скачан:139 раз
Смотреть онлайн Приговоренные | Скачать    Ребята, помогите собрать деньги на оплату серверов!!!

24-11-2015 18:10 Приговоренные Скачать торрент  


Приговоренные / Отбросы / Condemned


ИНФОРМАЦИЯ:
Год выпуска:2015
Жанр: ужасы
Продолжительность: 01:23:09
Перевод: Любительский (двухголосый)[Ох! Студия и Ворон]
Субтитры: английские,
Режиссер: Eli Morgan Gesner

В Ролях:


Майкл Гилл (Senior CDC Agent), Джонни Месснер (Gault), Джон Абрахамс (Vince), Лидия Хёрст (Tess), Ронен Рубеинштейн (Dante), Майкл Дрэйер (Marin), Дилан Пенн (Maya), Ки Хо (Pop Star), Энтони Чисхолм (Shynola), Женевьев Хадсон-Прайс (Alexa), Перри Юнг (Cookie), Майкл ДеМелло (Murphy)

Описание:
В токсичных отходах, мусоре и нечистотах, в богом забытом здании на Манхэттене в Нижнем Ист-Сайде, рождается страшный вирус. Он превращает местных обитателей в кровожадных убийц и, для оставшихся, единственным избавлением от кошмара станет только смерть...

  • Мировая премьера:13 ноября 2015

    ТЕХ.ДАННЫЕ:
    Качество: WEB-DL 720p
    Формат: MKV
    Видео: AVC, 1280x718 (16:9), 3979 kbps, 23,976 fps, 0,181 bpp
    Аудио №1: русский / AC3 / 2.0 / 48 kHz / 192 kbps / 16 bit ||
    Аудио №2: английский / AC3 / 5.1 / 48 kHz / 384 kbps / 16 bit
    Навигация по главам: есть


    General
    Unique ID : 219147866561806461582955198918830256078 (0xA4DE58064A8C3D648B963B97582EEFCE)
    Complete name : D:\Торенты\Condemned.2015.720p.WEB-DL.mkv
    Format : Matroska
    Format version : Version 4 / Version 2
    File size : 2.70 GiB
    Duration : 1h 23mn
    Overall bit rate : 4 648 Kbps
    Movie name : anton1
    Encoded date : UTC 2015-11-24 15:59:54
    Writing application : mkvmerge v6.9.1 ('Blue Panther') 64bit built on Apr 18 2014 18:23:38
    Writing library : libebml v1.3.0 + libmatroska v1.4.1

    Video
    ID : 1
    Format : AVC
    Format/Info : Advanced Video Codec
    Format profile : High@L3.1
    Format settings, CABAC : No
    Format settings, ReFrames : 2 frames
    Codec ID : V_MPEG4/ISO/AVC
    Duration : 1h 23mn
    Bit rate : 3 979 Kbps
    Width : 1 280 pixels
    Height : 718 pixels
    Display aspect ratio : 16:9
    Frame rate : 23.976 fps
    Color space : YUV
    Chroma subsampling : 4:2:0
    Bit depth : 8 bits
    Scan type : Progressive
    Bits/(Pixel*Frame) : 0.181
    Stream size : 2.31 GiB (86%)
    Title : Condemned.2015.720p.WEB-DL.DD5.1.H264-RARBG
    Language : English
    Default : Yes
    Forced : No
    Color primaries : BT.709-5, BT.1361, IEC 61966-2-4, SMPTE RP177
    Transfer characteristics : BT.709-5, BT.1361
    Matrix coefficients : BT.709-5, BT.1361, IEC 61966-2-4 709, SMPTE RP177

    Audio #1
    ID : 2
    Format : AC-3
    Format/Info : Audio Coding 3
    Mode extension : CM (complete main)
    Codec ID : A_AC3
    Duration : 1h 23mn
    Bit rate mode : Constant
    Bit rate : 192 Kbps
    Channel(s) : 2 channels
    Channel positions : Front: L R
    Sampling rate : 48.0 KHz
    Bit depth : 16 bits
    Compression mode : Lossy
    Stream size : 114 MiB (4%)
    Title : (Ох! Студия) и Ворон]
    Language : Russian
    Default : Yes
    Forced : No

    Audio #2
    ID : 3
    Format : AC-3
    Format/Info : Audio Coding 3
    Mode extension : CM (complete main)
    Codec ID : A_AC3
    Duration : 1h 23mn
    Bit rate mode : Constant
    Bit rate : 384 Kbps
    Channel(s) : 6 channels
    Channel positions : Front: L C R, Side: L R, LFE
    Sampling rate : 48.0 KHz
    Bit depth : 16 bits
    Compression mode : Lossy
    Stream size : 228 MiB (8%)
    Title : original
    Language : English
    Default : No
    Forced : No

    Text
    ID : 4
    Format : UTF-8
    Codec ID : S_TEXT/UTF8
    Codec ID/Info : UTF-8 Plain Text
    Language : English
    Default : No
    Forced : No

    Menu
    00:00:00.000 : en:"The Nature of Things"
    00:04:24.000 : en:Welcome Home
    00:10:43.000 : en:Mr. Cookie's Neighborhood
    00:19:01.000 : en:Neighborly Advice
    00:27:44.000 : en:Cognitive Dissonance
    00:35:41.000 : en:The Magic Man
    00:41:38.000 : en:Skeletons out of the Closet
    00:49:48.000 : en:Anatomically Incorrect
    00:57:33.000 : en:Just a Flesh Wound
    01:04:39.000 : en:a€?Boy Friendsa€
    01:11:48.000 : en:New York Catacombs
    01:17:07.000 : en:Credits
    Скриншоты:

    © Оформление by .::Ворон::.
    kino.freetor.icu



  • Скачать Приговоренные через торрент https://pic1.kartinco.top/images/61/ordi9.jpg Скачать, смотреть онлайн Приговоренные бесплантно в хорошем качестве Описание: В токсичных отходах, мусоре и нечистотах, в богом забытом здании на Манхэттене в Нижнем Ист-Сайде, рождается страшный вирус. Он ... 9.7 10 7
    Торрент: Зарегистрирован [2015-11-24 18:10] · скачан: 139 раз
    Статус: T временная
    Размер: 2.7 GB
    Как cкачать? Как скачать Приговоренные через торрент | UTorrent

    % Раздел Тема Автор DL S | L
    T Фильмы 2015 (Звук TS, Cam, VO, DVO) [ 1.46 GB ] Приговоренные / Отбросы / Condemned [2015 HDRip Любительский [Ох! Студия и Ворон] Ворон Скачать
    1 | 0

    28-11-2019 20:33  

    Отключить всю рекламу на сайте

    25-11-2015 08:21 Приговоренные Скачать торрент  

    Как кинцо ребята? трэш или смотреть можно.kino.freetor.icu



      Дорогой пользователь! Огромная просьба, поблагодарите релизера, оцените раздачу и оставьте свои комментарий, если Вы скачали Приговоренные через торрент бесплатно!
      Комментировать посты могут только пользователи прошедшие не сложную регистрацию
      Показать сообщения:    

      Приговоренные через торрент
      Скачать бесплатно Приговоренные
      Приговоренные скачать торрент
      Приговоренные смотреть онлайн
      Cкачать фильм Приговоренные бесплатно
      Приговоренные скачать торрент в хорошем качестве
      Приговоренные смотреть онлайн бесплатно в хорошем качестве


      Вы не можете начинать темы
      Вы не можете отвечать на сообщения
      Вы не можете редактировать свои сообщения
      Вы не можете удалять свои сообщения
      Вы не можете голосовать в опросах
      Вы не можете прикреплять файлы к сообщениям
      Вы можете скачивать файлы