Присоединяйтесь к нам в Telegram!, здесь всегда актуальный адрес сайта, оперативная поддержка и многое другое!!

>

5.9

iTunes

7.4

iTunes

9.4

1 сезон

1

7.4

2 сезон

7.2

iTunes

7.3

iTunes

13

6.1

iTunes

8.3

Пиратка

30

ULTIMATE

pack

9.9

Лицензия

ВАЖНО

ИГРА 18+

pack

7.3

RePack

MK11

7.7

RePack

jed

7.8

RePack

fifa19

8.5

RePack

RDR2

RePack

NEED FOR SPEED™ PAYBACK

5 сезон

9 сезон

Бесстыжие 9 сезон

Все сериалы

все сериалы на PB.wtf

RePack

FAR CRY 5

Anonymous, доброе утро, мы катастрофически не успеваем собрать деньги на оплату серверов, помогите нам пожалуйста 5,10,15р., для нас важна любая помощь . В качестве благодарности мы отключим Вам всю рекламу на сайте (укажите свой ник в строку Ваше имя)!

×
  
Magnet ссылка

Заброшенные / The Abandoned / The Confines (Итан Роквей / Eytan Rockaway) [2015, США, ужасы, триллер, детектив, WEB-DL 720p, Любительский (двухголосый)[den904, DeadSno] + ENG + SUB kino.freetor.icu

Заброшенные через торрент kino.freetor.icu

Размер: 2.81 GB | Добавлен: 5 лет 10 мес. назад | Торрент скачан:245 раз
Смотреть онлайн Заброшенные | Скачать    Ребята, помогите собрать деньги на оплату серверов!!!

28-01-2016 00:39 Заброшенные Скачать торрент  

Заброшенные / The Abandoned / The Confines
«Где умирают надежды»


  • Год выпуска: 2015
  • Страна: США
  • Жанр: ужасы, триллер, детектив
  • Продолжительность: 01:27:08
  • Перевод: Любительский (двухголосый)[den904, DeadSno]

  • Субтитры: русские
  • Режиссер: Итан Роквей / Eytan Rockaway
  • В ролях:

    Джейсон Патрик (Cooper), Луиса Краузе (Streak), Марк Марголис (Jim), Лу Карбонно (Cabbie), Массиель Эрнандез (Female Orderly), Генри Келемен (Apple-Cheeked Boy), Брэндон Киффер (Dr. Stevens), Джеймс Муртаг, Джон Сэмпсон (Male Orderly), Карлос Веласкес (Martin Rollins)


  • Проблемная девушка Джулия Стрик устраивается на работу ночным охранником в заброшенном жилом комплексе. Но уже в первое свое дежурство сталкивается с чем-то неведомым, обитающим в недрах разрушающегося здания. Нервы ее на пределе, Стрик и ее напарник пытаются разобраться, где явь, а где лишь плод больного воображения.
  • Рейтинг:



  • Качество: WEB-DL 720p
  • Формат: :MKV
  • Видео кодек: AVC
  • Аудио кодек: AC3
  • Видео: 1280x688 (1.860), 3763 kbps, 23,976 fps, 0,178 bpp
  • Аудио №1: русский / 5.1 / 48 kHz / 384 kbps / 16 bit |[den904, DeadSno]|
  • Аудио №2: английский / 5.1 / 48 kHz / 384 kbps / 16 bit
  • Релиз от: GEKADOL

    Код:

    General
    Unique ID                                : 33174939172168072704708274419839762691 (0x18F542C8BC736B5213604A7A460B8103)
    Complete name                            : G:\The Abandoned.2015.720p.WEB-DL.RU.L2.mkv
    Format                                   : Matroska
    Format version                           : Version 4 / Version 2
    File size                                : 2.81 GiB
    Duration                                 : 1h 27mn
    Overall bit rate                         : 4 624 Kbps
    Encoded date                             : UTC 2016-01-27 15:56:04
    Writing application                      : mkvmerge v8.2.0 ('World of Adventure') 64bit
    Writing library                          : libebml v1.3.1 + libmatroska v1.4.2
    DURATION                                 : 01:21:07.330000000
    NUMBER_OF_FRAMES                         : 637
    NUMBER_OF_BYTES                          : 33551
    _STATISTICS_WRITING_APP                  : mkvmerge v8.2.0 ('World of Adventure') 64bit
    _STATISTICS_WRITING_DATE_UTC             : 2016-01-27 15:56:04
    _STATISTICS_TAGS                         : BPS DURATION NUMBER_OF_FRAMES NUMBER_OF_BYTES

    Video
    ID                                       : 1
    Format                                   : AVC
    Format/Info                              : Advanced Video Codec
    Format profile                           : High@L3.1
    Format settings, CABAC                   : No
    Format settings, ReFrames                : 2 frames
    Codec ID                                 : V_MPEG4/ISO/AVC
    Duration                                 : 1h 27mn
    Bit rate                                 : 3 764 Kbps
    Width                                    : 1 280 pixels
    Height                                   : 688 pixels
    Display aspect ratio                     : 1.860
    Frame rate                               : 23.976 fps
    Color space                              : YUV
    Chroma subsampling                       : 4:2:0
    Bit depth                                : 8 bits
    Scan type                                : Progressive
    Bits/(Pixel*Frame)                       : 0.178
    Stream size                              : 2.29 GiB (81%)
    Language                                 : English
    Default                                  : Yes
    Forced                                   : No
    Color primaries                          : BT.709-5, BT.1361, IEC 61966-2-4, SMPTE RP177
    Transfer characteristics                 : BT.709-5, BT.1361
    Matrix coefficients                      : BT.709-5, BT.1361, IEC 61966-2-4 709, SMPTE RP177

    Audio #1
    ID                                       : 2
    Format                                   : AC-3
    Format/Info                              : Audio Coding 3
    Mode extension                           : CM (complete main)
    Codec ID                                 : A_AC3
    Duration                                 : 1h 27mn
    Bit rate mode                            : Constant
    Bit rate                                 : 384 Kbps
    Channel(s)                               : 6 channels
    Channel positions                        : Front: L C R, Side: L R, LFE
    Sampling rate                            : 48.0 KHz
    Bit depth                                : 16 bits
    Compression mode                         : Lossy
    Stream size                              : 239 MiB (8%)
    Language                                 : Russian
    Default                                  : No
    Forced                                   : No

    Audio #2
    ID                                       : 3
    Format                                   : AC-3
    Format/Info                              : Audio Coding 3
    Mode extension                           : CM (complete main)
    Codec ID                                 : A_AC3
    Duration                                 : 1h 27mn
    Bit rate mode                            : Constant
    Bit rate                                 : 384 Kbps
    Channel(s)                               : 6 channels
    Channel positions                        : Front: L C R, Side: L R, LFE
    Sampling rate                            : 48.0 KHz
    Bit depth                                : 16 bits
    Compression mode                         : Lossy
    Stream size                              : 239 MiB (8%)
    Language                                 : English
    Default                                  : Yes
    Forced                                   : No

    Text
    ID                                       : 4
    Format                                   : UTF-8
    Codec ID                                 : S_TEXT/UTF8
    Codec ID/Info                            : UTF-8 Plain Text
    Language                                 : Russian
    Default                                  : Yes
    Forced                                   : No

    Menu
    00:00:00.000                             : en:1
    00:13:00.000                             : en:2
    00:23:05.000                             : en:3
    00:32:49.000                             : en:4
    00:43:26.000                             : en:5
    00:56:17.000                             : en:6
    01:05:58.000                             : en:7
    01:13:39.000                             : en:8
    01:22:01.000                             : en:9




    Скриншоты:



    kino.freetor.icu



  • Скачать Заброшенные через торрент http://i74.fastpic.ru/big/2016/0128/e6/d415def8c3f77c8d4c980e6629e450e6.jpg Скачать, смотреть онлайн Заброшенные бесплантно в хорошем качестве qw.png Проблемная девушка Джулия Стрик устраивается на работу ночным охранником в заброшенном жилом комплексе. Но уже в первое свое ... 10 10 6
    Торрент: Зарегистрирован [2016-01-28 00:39] · скачан: 245 раз
    Статус: T временная
    Размер: 2.81 GB
    Как cкачать? Как скачать Заброшенные через торрент | UTorrent

    28-11-2019 20:33  

    Отключить всю рекламу на сайте

      Дорогой пользователь! Огромная просьба, поблагодарите релизера, оцените раздачу и оставьте свои комментарий, если Вы скачали Заброшенные через торрент бесплатно!
      Комментировать посты могут только пользователи прошедшие не сложную регистрацию
      Показать сообщения:    

      Заброшенные через торрент
      Скачать бесплатно Заброшенные
      Заброшенные скачать торрент
      Заброшенные смотреть онлайн
      Cкачать фильм Заброшенные бесплатно
      Заброшенные скачать торрент в хорошем качестве
      Заброшенные смотреть онлайн бесплатно в хорошем качестве


      Вы не можете начинать темы
      Вы не можете отвечать на сообщения
      Вы не можете редактировать свои сообщения
      Вы не можете удалять свои сообщения
      Вы не можете голосовать в опросах
      Вы не можете прикреплять файлы к сообщениям
      Вы можете скачивать файлы